<?xml version="1.0" standalone="no"?><!DOCTYPE svg PUBLIC "-//W3C//DTD SVG 1.1//EN" "http://www.w3.org/Graphics/SVG/1.1/DTD/svg11.dtd" ><svg xmlns="http://www.w3.org/2000/svg"><metadata></metadata><defs><font id="xuannaer" horiz-adv-x="1014"><font-face font-family="xuannaer" font-weight="400" font-stretch="normal" units-per-em="1024" panose-1="2 0 6 3 0 0 0 0 0 0" ascent="812" descent="-212" x-height="0" bbox="2 -147 1012 856" underline-thickness="0" underline-position="50" unicode-range="U+0030-9ad8" /><missing-glyph horiz-adv-x="185" d="M17 0 l0 338 l134 0 l0 -338 l-134 0 ZM34 17 l101 0 l0 304 l-101 0 l0 -304 Z" /><glyph glyph-name="*" unicode="&#x548c;" d="M45 368 q0 203 67.5 307.5 q67.5 104.5 194.5 104.5 q244 0 244 -393 q0 -194 -68.5 -297 q-68.5 -103 -192.5 -103 q-117 0 -181 97.5 q-64 97.5 -64 283.5 ZM144 373 q0 -306 155 -306 q152 0 152 311 q0 321 -149 321 q-158 0 -158 -326 Z" /><glyph glyph-name="*" unicode="&#x5a31;" d="M533 0 l-439 0 l0 84 l171 0 l0 582 l-176 -51 l0 89 l273 79 l0 -699 l171 0 l0 -84 Z" /><glyph glyph-name="*" unicode="&#x9501;" d="M519 0 l-467 0 l0 84 l223 222 q92 92 123.5 146 q31.5 54 31.5 111 q0 66 -37 100.5 q-37 34.5 -106 34.5 q-102 0 -195 -87 l0 99 q90 70 210 70 q104 0 164 -56 q60 -56 60 -151 q0 -71 -38.5 -139.5 q-38.5 -68.5 -145.5 -174.5 l-175 -171 l0 -2 l352 0 l0 -86 Z" /><glyph glyph-name="*" unicode="&#x5236;" d="M71 128 q78 -61 177 -61 q80 0 126 39 q46 39 46 104 q0 146 -208 146 l-64 0 l0 80 l61 0 q185 0 185 137 q0 126 -142 126 q-80 0 -152 -55 l0 92 q76 44 176 44 q98 0 157.5 -51.5 q59.5 -51.5 59.5 -133.5 q0 -150 -153 -193 l0 -2 q83 -9 131 -58.5 q48 -49.5 48 -124.5 q0 -103 -74.5 -166.5 q-74.5 -63.5 -197.5 -63.5 q-109 0 -176 41 l0 100 Z" /><glyph glyph-name="*" unicode="&#x4eba;" d="M558 199 l-98 0 l0 -199 l-94 0 l0 199 l-357 0 l0 63 l339 505 l112 0 l0 -491 l98 0 l0 -77 ZM366 276 l0 321 q0 34 2 79 l-2 0 q-7 -19 -29 -59 l-228 -341 l257 0 Z" /><glyph glyph-name="*" unicode="1" d="M88 118 q77 -51 160 -51 q80 0 128.5 44.5 q48.5 44.5 48.5 117.5 q0 74 -49.5 114.5 q-49.5 40.5 -142.5 40.5 q-45 0 -122 -7 l0 390 l378 0 l0 -86 l-288 0 l0 -217 q44 3 65 3 q122 0 189.5 -61.5 q67.5 -61.5 67.5 -169.5 q0 -111 -72.5 -180 q-72.5 -69 -201.5 -69 q-107 0 -161 32 l0 99 Z" /><glyph glyph-name="*" unicode="&#x9a8c;" d="M504 668 q-60 31 -125 31 q-100 0 -160.5 -86.5 q-60.5 -86.5 -61.5 -236.5 l3 0 q54 105 174 105 q99 0 158.5 -65 q59.5 -65 59.5 -172 q0 -112 -68.5 -184.5 q-68.5 -72.5 -175.5 -72.5 q-116 0 -183 91.5 q-67 91.5 -67 259.5 q0 203 87.5 322.5 q87.5 119.5 230.5 119.5 q81 0 128 -23 l0 -89 ZM163 251 q0 -76 40.5 -130 q40.5 -54 107.5 -54 q63 0 102.5 46.5 q39.5 46.5 39.5 120.5 q0 79 -37 123 q-37 44 -106 44 q-65 0 -106 -44.5 q-41 -44.5 -41 -105.5 Z" /><glyph glyph-name="*" unicode="&#x5316;" d="M545 733 l-300 -733 l-100 0 l285 681 l-383 0 l0 86 l498 0 l0 -34 Z" /><glyph glyph-name="*" unicode="&#x4f18;" d="M217 403 q-137 64 -137 186 q0 84 64 137.5 q64 53.5 164 53.5 q92 0 151.5 -50 q59.5 -50 59.5 -130 q0 -127 -143 -196 l0 -2 q168 -60 168 -206 q0 -96 -69.5 -152.5 q-69.5 -56.5 -192.5 -56.5 q-102 0 -166 56 q-64 56 -64 145 q0 147 165 213 l0 2 ZM421 589 q0 52 -32.5 81.5 q-32.5 29.5 -87.5 29.5 q-51 0 -87 -31 q-36 -31 -36 -79 q0 -96 120 -146 q123 51 123 145 ZM292 357 q-142 -57 -142 -164 q0 -55 41.5 -91 q41.5 -36 108.5 -36 q65 0 105.5 35.5 q40.5 35.5 40.5 88.5 q0 111 -154 167 Z" /><glyph glyph-name="*" unicode="&#x724c;" d="M92 104 q63 -37 136 -37 q103 0 160 81.5 q57 81.5 57 230.5 q-1 -1 -2 0 q-51 -96 -170 -96 q-97 0 -160 66.5 q-63 66.5 -63 172.5 q0 113 69 185.5 q69 72.5 179 72.5 q115 0 179.5 -90 q64.5 -90 64.5 -262 q0 -212 -83.5 -326.5 q-83.5 -114.5 -230.5 -114.5 q-80 0 -136 26 l0 91 ZM148 534 q0 -77 39.5 -122.5 q39.5 -45.5 109.5 -45.5 q60 0 101 41.5 q41 41.5 41 100.5 q0 83 -41 137 q-41 54 -107 54 q-62 0 -102.5 -47 q-40.5 -47 -40.5 -118 Z" /><glyph glyph-name="*" unicode="&#x5c45;" d="M30 761 l954 0 l0 -76 l-567 0 q-4 -111 -10 -207 l459 0 q-10 -202 -23 -383 q-8 -110 -50 -159 q-40 -44 -144 -45 q-54 -2 -184 8 q-5 37 -15 91 q126 -17 193 -17 q105 -8 116 133 q12 139 18 296 l-376 0 q-37 -362 -325 -538 q-23 31 -58 70 q278 169 298 505 q9 108 12 246 l-298 0 l0 76 Z" /><glyph glyph-name="*" unicode="&#x6237;" d="M91 743 l830 0 l0 -85 l-830 0 l0 85 ZM30 26 l956 0 l0 -83 l-956 0 l0 83 ZM136 403 l740 0 l0 -84 l-740 0 l0 84 Z" /><glyph glyph-name="*" unicode="&#x56fd;" d="M26 7 l388 0 l0 818 l90 0 l0 -298 l407 0 l0 -79 l-407 0 l0 -441 l485 0 l0 -79 l-963 0 l0 79 Z" /><glyph glyph-name="*" unicode="&#x6a21;" d="M26 761 l962 0 l0 -81 l-481 0 l0 -216 l45 63 q227 -133 381 -240 l-59 -81 q-153 118 -367 249 l0 -581 l-90 0 l0 806 l-391 0 l0 81 Z" /><glyph glyph-name="*" unicode="&#x9879;" d="M184 378 l0 75 l40 391 l82 0 l-15 -157 l702 0 l0 -76 l-709 0 l-16 -158 l653 0 q-12 -208 -27 -387 q-14 -105 -60 -142 q-45 -35 -149 -35 q-98 1 -226 4 q-6 33 -16 86 q150 -11 224 -12 q133 -9 145 104 q13 131 22 307 l-650 0 ZM17 223 l733 0 l0 -75 l-733 0 l0 75 Z" /><glyph glyph-name="*" unicode="&#x539f;" d="M260 165 q132 -59 284 -130 l223 193 l-554 0 l0 73 l48 123 l-236 0 l0 75 l266 0 l53 136 l-259 0 l0 75 l289 0 l52 132 l90 0 l-52 -132 l469 0 l0 -75 l-499 0 l-53 -136 l615 0 l0 -75 l-645 0 l-48 -122 l577 0 l0 -77 l-263 -225 q66 -32 136 -66 l-48 -75 q-249 131 -486 240 l41 66 Z" /><glyph glyph-name="*" unicode="&#x5ea6;" d="M425 830 l77 0 l0 -244 l262 0 l0 244 l78 0 l0 -244 l144 0 l0 -76 l-144 0 l0 -396 l-78 0 l0 65 l-262 0 l0 -72 l-77 0 l0 403 l-189 0 l0 -524 l726 0 l0 -76 l-806 0 l0 600 l-129 0 l0 76 l129 0 l0 200 l80 0 l0 -200 l189 0 l0 244 ZM502 252 l262 0 l0 258 l-262 0 l0 -258 Z" /><glyph glyph-name="*" unicode="&#x6613;" d="M19 7 l318 0 l0 818 l83 0 l0 -818 l173 0 l0 818 l83 0 l0 -818 l321 0 l0 -73 l-978 0 l0 73 ZM134 631 q81 -191 157 -406 l-81 -36 q-66 208 -149 410 l73 32 ZM712 216 q99 210 166 406 l80 -31 q-92 -237 -175 -407 l-71 32 Z" /><glyph glyph-name="*" unicode="&#x9547;" d="M112 298 l0 76 l113 263 l-194 0 l0 75 l226 0 l59 136 l85 -18 l-52 -118 l634 0 l0 -75 l-666 0 l-115 -263 l298 0 l0 217 l83 0 l0 -217 l354 0 l0 -76 l-354 0 l0 -292 q0 -123 -129 -123 q-65 0 -148 1 q-6 38 -15 89 q65 -9 141 -9 q68 -1 68 70 l0 264 l-388 0 ZM256 239 l67 -50 q-113 -133 -258 -274 q-25 28 -56 56 q132 125 247 268 ZM679 173 l56 54 q136 -113 273 -236 l-62 -63 q-135 134 -267 245 Z" /><glyph glyph-name="*" unicode="&#x5bfc;" d="M26 791 l962 0 l0 -73 l-303 0 q1 -71 -1 -132 l244 0 l0 -586 q0 -113 -114 -113 q-54 0 -152 2 q-5 34 -14 77 q95 -7 143 -7 q62 0 62 60 l0 495 l-172 0 q-5 -97 -20 -175 q109 -101 182 -186 l-51 -55 q-76 91 -152 168 q-48 -134 -157 -243 q-22 25 -61 54 q187 170 187 437 l-207 0 q-5 -104 -15 -147 q81 -67 134 -113 l-44 -65 q-53 55 -109 107 q-44 -134 -149 -243 q-24 27 -58 56 q165 153 169 405 l-172 0 l0 -632 l-74 0 l0 704 l249 0 q2 62 2 132 l-309 0 l0 73 ZM405 586 l207 0 q2 62 1 132 l-206 0 q0 -71 -2 -132 Z" /><glyph glyph-name="*" unicode="&#x7ba1;" d="M461 480 l90 0 l0 -613 l-90 0 l0 613 ZM570 820 l-15 -23 q161 -264 446 -378 q-31 -48 -53 -89 q-291 153 -440 393 q-147 -228 -445 -407 q-21 36 -50 79 q309 171 459 425 l98 0 Z" /><glyph glyph-name="*" unicode="&#x793e;" d="M83 629 l381 0 l0 216 l85 0 l0 -216 l386 0 l0 -451 l-82 0 l0 53 l-304 0 l0 -368 l-85 0 l0 368 l-300 0 l0 -53 l-81 0 l0 451 ZM853 556 l-304 0 l0 -252 l304 0 l0 252 ZM164 304 l300 0 l0 252 l-300 0 l0 -252 Z" /><glyph glyph-name="*" unicode="&#x96c6;" d="M425 392 l526 0 l0 -516 l-76 0 l0 64 l-374 0 l0 -64 l-76 0 l0 516 ZM241 836 l78 0 l0 -965 l-78 0 l0 965 ZM346 490 q127 170 199 358 l75 -25 q-26 -62 -54 -121 l428 0 l0 -73 l-466 0 q-57 -105 -123 -196 q-19 22 -59 57 ZM63 742 l79 0 l0 -778 l-79 0 l0 778 ZM875 320 l-149 0 l0 -311 l149 0 l0 311 ZM501 9 l148 0 l0 311 l-148 0 l0 -311 ZM643 609 q84 -65 159 -136 l-58 -60 q-82 88 -153 146 l52 50 Z" /><glyph glyph-name="*" unicode="&#x53f8;" d="M56 584 l372 0 q15 121 15 262 l85 0 q0 -147 -14 -262 l421 0 q-6 -306 -18 -505 q-10 -185 -196 -185 q-77 0 -183 5 q-4 38 -15 92 q93 -13 183 -13 q119 0 125 117 q13 194 17 411 l-345 0 q-73 -436 -407 -649 q-28 35 -60 73 q308 182 380 576 l-360 0 l0 78 ZM527 328 l54 49 q95 -88 172 -174 l-61 -55 q-76 90 -165 180 ZM127 780 l53 49 q82 -71 159 -146 l-61 -57 q-73 80 -151 154 Z" /><glyph glyph-name="*" unicode="&#x529e;" d="M85 655 l812 0 l0 -74 q-265 -278 -622 -496 q99 -96 286 -104 q236 -4 439 5 q-24 -57 -32 -85 q-102 0 -439 4 q-209 8 -331 144 q-10 12 -22 1 q-67 -62 -125 -132 l-43 82 q76 75 126 111 q33 24 65 21 q341 208 582 450 l-696 0 l0 73 ZM420 809 l73 37 q41 -58 91 -143 l-77 -41 q-42 75 -87 147 Z" /><glyph glyph-name="*" unicode="&#x53ca;" d="M152 761 q376 8 711 45 l27 -77 q-352 -33 -664 -38 l-38 -286 l289 0 l0 225 l82 0 l0 -225 l390 0 l0 -75 l-390 0 l0 -311 q0 -76 -27 -105 q-31 -31 -100 -31 q-37 0 -132 1 q-5 39 -16 85 q100 -9 130 -8 q63 -2 63 65 l0 304 l-382 0 l57 431 ZM740 273 q145 -148 261 -293 l-66 -60 q-115 151 -258 305 l63 48 ZM267 271 l70 -49 q-144 -191 -260 -302 q-27 25 -62 56 q136 135 252 295 Z" /><glyph glyph-name="*" unicode="&#x597d;" d="M471 840 l78 0 l0 -233 l346 65 q-8 -209 -14 -323 q-4 -89 -38 -128 q-33 -35 -118 -35 q-49 0 -106 2 q-6 37 -17 83 q46 -6 119 -8 q48 -1 64 19 q16 18 19 73 q7 118 10 224 l-265 -50 l0 -445 l-78 0 l0 430 l-233 -43 l0 -404 q0 -83 86 -83 l462 0 q98 0 110 71 q13 65 19 148 q41 -16 85 -30 q-14 -93 -27 -149 q-25 -117 -169 -117 l-496 0 q-149 0 -149 143 l0 406 l-133 -25 l-13 75 l146 28 l0 193 l79 0 l0 -179 l233 44 l0 248 Z" /><glyph glyph-name="*" unicode="&#x56f4;" d="M481 474 q169 104 315 213 l-744 0 l0 82 l881 0 l0 -98 q-178 -122 -363 -238 l0 -364 q0 -98 -37 -136 q-37 -39 -136 -40 q-54 0 -161 3 q-6 49 -16 96 q99 -11 170 -12 q91 -1 91 90 l0 404 Z" /><glyph glyph-name="*" unicode="&#x6c34;" d="M84 116 l387 0 l0 75 l-448 0 l0 61 l448 0 l0 73 l-384 0 l0 60 l384 0 l0 67 l-251 0 l0 -26 l-70 0 l0 213 l321 0 l0 65 l-445 0 l0 62 l445 0 l0 77 l74 0 l0 -77 l444 0 l0 -62 l-444 0 l0 -65 l320 0 l0 -213 l-69 0 l0 26 l-251 0 l0 -67 l342 0 l0 -133 l110 0 l0 -61 l-110 0 l0 -182 l-71 0 l0 48 l-271 0 l0 -58 q0 -119 -115 -120 q-55 0 -143 2 q-4 33 -12 82 q77 -10 138 -10 q58 0 58 59 l0 45 l-387 0 l0 59 ZM545 116 l271 0 l0 75 l-271 0 l0 -75 ZM816 325 l-271 0 l0 -73 l271 0 l0 73 ZM796 584 l-251 0 l0 -77 l251 0 l0 77 ZM220 507 l251 0 l0 77 l-251 0 l0 -77 Z" /><glyph glyph-name="*" unicode="&#x8eab;" d="M103 715 l808 0 l0 -85 l-808 0 l0 85 ZM30 67 l951 0 l0 -83 l-951 0 l0 83 Z" /><glyph glyph-name="*" unicode="&#x7efc;" d="M20 -5 l230 0 l58 388 l-226 0 l0 75 l238 0 l35 240 l-300 0 l0 76 l897 0 l0 -76 l-513 0 l-36 -240 l436 0 l0 -463 l160 0 l0 -75 l-979 0 l0 75 ZM755 383 l-363 0 l-58 -388 l421 0 l0 388 Z" /><glyph glyph-name="*" unicode="&#x7a0b;" d="M664 418 l77 -32 q-74 -168 -176 -273 q148 -110 421 -157 q-37 -50 -59 -83 q-264 67 -421 186 q-136 -106 -433 -193 q-22 35 -49 76 q278 70 420 171 q-98 100 -169 261 l67 37 q64 -147 164 -246 q90 90 158 253 ZM31 694 l464 0 q-24 49 -67 118 l73 36 q43 -59 75 -125 l-55 -29 l460 0 l0 -73 l-950 0 l0 73 ZM324 576 l63 -52 q-139 -145 -288 -260 q-25 31 -55 63 q149 106 280 249 ZM679 581 q181 -143 283 -239 q-27 -28 -59 -64 q-112 115 -278 251 l54 52 Z" /><glyph glyph-name="*" unicode="&#x5e76;" d="M118 445 l468 0 q67 99 120 196 l76 -48 q-52 -74 -110 -148 l293 0 l0 -69 l-767 0 l0 -70 q0 -175 -27 -261 q-27 -96 -105 -180 q-25 32 -53 67 q58 63 82 147 q23 82 23 227 l0 139 ZM37 728 l452 0 q-22 41 -48 83 l73 37 q32 -53 66 -120 l411 0 l0 -70 l-954 0 l0 70 ZM244 601 l65 44 q61 -77 109 -147 l-71 -48 q-38 65 -103 151 Z" /><glyph glyph-name="*" unicode="&#x5b9d;" d="M152 548 l708 0 l0 -335 l-77 0 l0 40 l-228 0 l0 -252 q0 -117 -111 -118 q-72 0 -130 0 q-7 42 -15 80 q66 -6 115 -6 q62 -2 62 64 l0 232 l-246 0 l0 -45 l-78 0 l0 340 ZM783 480 l-553 0 l0 -159 l553 0 l0 159 ZM24 705 l457 0 q-28 53 -64 108 l72 36 q40 -59 77 -123 l-39 -21 l465 0 l0 -69 l-968 0 l0 69 ZM278 170 l55 -60 q-133 -100 -267 -183 q-18 34 -45 67 q135 78 257 176 ZM662 103 l47 60 q135 -80 260 -163 l-52 -68 q-105 78 -255 171 Z" /><glyph glyph-name="*" unicode="&#x73af;" d="M16 -48 q431 249 456 875 l87 0 q-5 -106 -20 -202 q122 -495 461 -651 q-42 -46 -73 -86 q-294 166 -420 588 q-108 -408 -429 -599 q-27 36 -62 75 Z" /><glyph glyph-name="*" unicode="&#x4e0e;" d="M918 262 q24 -12 83 -30 q-9 -110 -23 -191 q-22 -126 -175 -127 q-158 -6 -299 0 q-132 7 -159 85 q-26 79 62 201 q86 118 404 486 l-439 0 l0 78 l542 0 l0 -92 q-240 -262 -417 -485 q-83 -112 -73 -153 q4 -41 110 -44 q120 -5 240 1 q70 3 93 19 q26 17 34 70 q10 54 17 182 ZM14 350 q144 200 229 490 l81 -24 q-41 -121 -88 -227 l0 -715 l-78 0 l0 560 q-52 -93 -110 -171 q-14 43 -34 87 Z" /><glyph glyph-name="*" unicode="&#x63a8;" d="M607 832 l77 0 q0 -114 -3 -256 q64 -452 321 -612 q-36 -40 -64 -76 q-207 151 -284 480 q-54 -300 -308 -498 q-33 39 -58 63 q249 185 299 486 q20 140 20 413 ZM214 832 l78 0 q0 -205 -9 -350 q129 -139 224 -252 l-61 -60 q-71 93 -172 211 q-28 -279 -208 -500 q-22 27 -57 63 q136 158 178 382 q26 135 27 506 Z" /><glyph glyph-name="*" unicode="&#x4e2d;" d="M293 497 l234 26 q-12 126 -16 314 l86 0 q-2 -148 12 -305 l363 40 l9 -74 l-364 -40 q56 -409 216 -491 q43 -18 56 29 q19 70 32 159 q41 -18 79 -29 q-15 -96 -36 -170 q-26 -86 -106 -84 q-85 3 -162 102 q-115 133 -160 475 l-231 -25 l-12 73 ZM6 368 q154 208 244 475 l80 -28 q-44 -115 -92 -214 l0 -734 l-82 0 l0 582 q-56 -95 -116 -170 q-14 40 -34 89 ZM688 759 l52 52 q87 -66 178 -147 l-61 -62 q-83 86 -169 157 Z" /><glyph glyph-name="*" unicode="&#x4e24;" d="M946 38 q0 -85 -29 -120 q-32 -34 -110 -37 q-60 -2 -153 2 q-4 29 -15 80 q82 -6 151 -6 q47 -1 64 24 q11 17 11 64 l0 632 l-255 0 l0 77 l336 0 l0 -716 ZM13 360 q152 229 220 474 l77 -31 q-39 -113 -85 -216 l0 -715 l-78 0 l0 559 q-48 -86 -102 -163 q-12 40 -32 92 ZM368 -118 l0 727 l81 0 l0 -727 l-81 0 ZM371 794 l59 44 q90 -105 125 -152 l-68 -49 q-38 59 -116 157 Z" /><glyph glyph-name="*" unicode="&#x5bcc;" d="M309 288 l343 0 l0 250 l-188 0 q-40 -106 -88 -190 q-29 28 -65 52 q94 166 138 370 l81 -23 q-20 -74 -42 -140 l164 0 l0 230 l80 0 l0 -230 l236 0 l0 -69 l-236 0 l0 -250 l269 0 l0 -70 l-269 0 l0 -346 l-80 0 l0 346 l-343 0 l0 70 ZM11 347 q137 202 220 489 l81 -24 q-37 -115 -79 -216 l0 -725 l-79 0 l0 562 q-50 -94 -107 -172 q-15 42 -36 86 Z" /><glyph glyph-name="*" unicode="&#x6295;" d="M58 -16 l134 0 l0 384 l82 0 l0 -384 l205 0 l0 553 l82 0 l0 -219 l302 0 l0 -72 l-302 0 l0 -262 l396 0 l0 -74 l-899 0 l0 74 ZM582 833 l-20 -27 q155 -204 439 -316 q-22 -32 -55 -86 q-270 136 -435 341 q-156 -201 -449 -364 q-25 37 -57 81 q302 137 470 371 l107 0 Z" /><glyph glyph-name="*" unicode="&#x8f66;" d="M1010 85 q-39 -39 -69 -74 q-174 172 -276 455 l0 -599 l-75 0 l0 611 q-92 -263 -288 -478 q-26 32 -57 66 q207 217 312 486 l-261 0 l0 71 l294 0 l0 217 l75 0 l0 -217 l304 0 l0 -71 l-274 0 q107 -296 315 -467 ZM13 379 q155 210 234 467 l80 -27 q-49 -137 -107 -253 l0 -699 l-75 0 l0 563 q-47 -76 -99 -140 q-14 42 -33 89 Z" /><glyph glyph-name="*" unicode="&#x8d44;" d="M289 572 l215 0 q5 113 5 263 l79 0 q1 -148 -4 -263 l396 0 l0 -73 l-271 0 l0 -463 q0 -55 57 -55 l65 0 q65 0 72 67 q8 56 13 152 q39 -15 81 -31 q-8 -85 -19 -152 q-12 -63 -43 -88 q-30 -25 -99 -24 l-82 0 q-69 0 -97 28 q-28 26 -28 96 l0 470 l-49 0 q-10 -374 -271 -626 q-28 32 -60 64 q242 226 251 562 l-211 0 l0 73 ZM14 370 q153 207 233 468 l80 -27 q-49 -137 -107 -253 l0 -686 l-75 0 l0 550 q-47 -76 -99 -140 q-15 42 -32 88 ZM729 821 q106 -67 176 -126 q-28 -30 -52 -63 q-81 72 -168 135 l44 54 Z" /><glyph glyph-name="*" unicode="&#x8054;" d="M656 154 q144 -128 248 -240 l-64 -57 q-32 37 -74 81 q-246 -15 -504 -34 q-41 -3 -84 -21 l-44 82 q48 18 82 47 q86 85 166 197 l-330 0 l0 74 l909 0 l0 -74 l-479 0 q-101 -127 -197 -226 q219 11 418 20 q-46 47 -100 101 l53 50 ZM507 752 q-198 -234 -445 -376 q-23 35 -54 72 q284 146 460 384 l106 0 l-19 -25 q172 -228 453 -335 q-30 -40 -56 -84 q-287 139 -445 364 ZM232 487 l546 0 l0 -74 l-546 0 l0 74 Z" /><glyph glyph-name="*" unicode="&#x53d1;" d="M309 -18 l305 0 l0 302 l-248 0 l0 73 l248 0 l0 238 l-275 0 l0 74 l627 0 l0 -74 l-273 0 l0 -238 l246 0 l0 -73 l-246 0 l0 -302 l303 0 l0 -74 l-687 0 l0 74 ZM13 353 q158 216 239 492 l82 -24 q-41 -115 -86 -215 l0 -735 l-78 0 l0 582 q-59 -105 -123 -187 q-14 43 -34 87 ZM563 804 l65 41 q54 -65 99 -128 l-73 -46 q-43 73 -91 133 Z" /><glyph glyph-name="*" unicode="&#x5973;" d="M1006 123 q-34 -40 -59 -73 q-198 152 -291 516 l0 -418 l146 0 l0 -71 l-146 0 l0 -207 l-73 0 l0 207 l-145 0 l0 71 l145 0 l0 418 l-2 0 q-92 -342 -304 -532 q-23 29 -52 63 q191 174 286 469 l-233 0 l0 71 l305 0 l0 202 l73 0 l0 -202 l316 0 l0 -71 l-252 0 q95 -308 286 -443 ZM9 364 q143 210 214 478 l75 -22 q-39 -126 -87 -237 l0 -712 l-73 0 l0 563 q-45 -81 -95 -151 q-15 40 -34 81 Z" /><glyph glyph-name="*" unicode="&#x5e9c;" d="M51 312 l423 0 l0 138 l-242 0 l0 49 q-79 -53 -170 -102 q-20 34 -49 73 q306 152 461 366 l105 0 l-20 -25 q166 -214 441 -323 q-31 -43 -53 -78 q-88 43 -166 95 l0 -55 l-227 0 l0 -138 l408 0 l0 -74 l-408 0 l0 -229 q0 -136 -133 -136 q-47 0 -125 2 q-5 37 -13 82 q74 -8 123 -9 q68 -2 68 69 l0 221 l-423 0 l0 74 ZM510 751 q-95 -121 -244 -227 l487 0 q-136 97 -243 227 ZM710 196 q156 -121 265 -217 l-61 -64 q-122 117 -259 227 l55 54 ZM260 197 l72 -48 q-121 -145 -228 -240 q-28 25 -66 55 q125 99 222 233 Z" /><glyph glyph-name="*" unicode="&#x578b;" d="M286 441 q132 180 194 402 l81 -15 q-23 -76 -52 -147 l488 0 l0 -70 l-360 0 l0 -173 l320 0 l0 -69 l-320 0 l0 -180 l333 0 l0 -70 l-333 0 l0 -249 l-78 0 l0 741 l-80 0 q-56 -120 -131 -226 q-27 26 -62 56 ZM11 350 q139 207 221 490 l81 -24 q-38 -117 -81 -219 l0 -727 l-78 0 l0 566 q-50 -94 -105 -171 q-15 37 -38 85 Z" /><glyph glyph-name="*" unicode="&#x9500;" d="M359 198 l67 36 q45 -76 114 -132 q36 51 49 165 l-258 0 l0 272 l267 0 l0 98 l-317 0 l0 67 l317 0 l0 134 l76 0 l0 -134 l320 0 l0 -67 l-320 0 l0 -98 l267 0 l0 -315 l-76 0 l0 43 l-199 0 q-16 -138 -60 -208 q-1 -1 -1 -2 q153 -89 397 -104 q-30 -43 -55 -82 q-239 29 -395 129 q-86 -77 -254 -137 q-23 32 -51 66 q160 51 241 117 q-77 65 -129 152 ZM15 362 q133 201 206 480 l73 -22 q-41 -133 -89 -247 l0 -707 l-70 0 l0 561 q-43 -78 -90 -144 q-15 41 -30 79 ZM671 333 l194 0 l0 140 l-191 0 q0 -39 -3 -140 ZM595 333 q3 47 3 140 l-192 0 l0 -140 l189 0 Z" /><glyph glyph-name="*" unicode="&#x51fa;" d="M740 833 l81 0 l0 -218 l141 0 l0 -71 l-141 0 l0 -273 l176 0 l0 -72 l-720 0 l0 72 l168 0 l0 273 l-128 0 l0 71 l128 0 l0 217 l81 0 l0 -217 l214 0 l0 218 ZM4 366 q155 209 244 476 l80 -29 q-51 -132 -106 -242 l0 -704 l-79 0 l0 560 q-51 -83 -105 -150 q-14 40 -34 89 ZM526 271 l214 0 l0 273 l-214 0 l0 -273 ZM692 121 l58 50 q157 -145 245 -242 l-65 -60 q-101 120 -238 252 ZM574 119 q-117 -142 -243 -254 q-27 31 -61 57 q126 95 236 245 l68 -48 Z" /><glyph glyph-name="*" unicode="&#x6279;" d="M873 215 l0 29 l-202 0 q-14 -113 -57 -182 q153 -73 384 -89 q-26 -40 -46 -77 q-230 24 -387 107 q-93 -88 -258 -136 q-24 32 -55 67 q166 43 246 110 q-85 58 -144 139 l55 44 q54 -75 138 -128 q38 54 51 145 l-257 0 l0 383 l265 0 l0 93 l-278 0 l0 68 l654 0 l0 -68 l-305 0 l0 -93 l265 0 l0 -412 l-69 0 ZM9 366 q137 191 227 477 l76 -31 q-46 -126 -94 -231 l0 -709 l-71 0 l0 567 q-52 -93 -106 -162 q-14 40 -32 89 ZM676 307 l197 0 l0 98 l-196 0 q0 -45 -1 -98 ZM604 307 q2 24 2 98 l-196 0 l0 -98 l194 0 ZM873 564 l-196 0 l0 -97 l196 0 l0 97 ZM410 467 l196 0 l0 97 l-196 0 l0 -97 Z" /><glyph glyph-name="*" unicode="&#x5c42;" d="M358 792 l553 0 l0 -373 l-75 0 l0 38 l-167 0 l0 -134 l327 0 l0 -67 l-269 0 q91 -152 277 -239 q-31 -42 -50 -73 q-186 113 -285 305 l0 -383 l-72 0 l0 387 q-120 -216 -300 -329 q-23 28 -55 61 q176 97 286 271 l-260 0 l0 67 l329 0 l0 134 l-163 0 l0 -45 l-76 0 l0 380 ZM11 356 q133 198 206 480 l73 -22 q-41 -130 -88 -244 l0 -699 l-71 0 l0 549 q-43 -78 -89 -145 q-14 41 -31 81 ZM836 726 l-402 0 l0 -203 l402 0 l0 203 Z" /><glyph glyph-name="*" unicode="&#x5e03;" d="M364 227 l564 0 l0 -362 l-77 0 l0 59 l-410 0 l0 -59 l-77 0 l0 362 ZM13 365 q145 216 219 477 l77 -22 q-43 -133 -94 -245 l0 -710 l-73 0 l0 565 q-46 -80 -96 -146 q-16 41 -33 81 ZM851 160 l-410 0 l0 -168 l410 0 l0 168 ZM299 708 l323 0 q-29 51 -62 101 l67 35 q35 -53 70 -113 l-43 -23 l342 0 l0 -69 l-697 0 l0 69 ZM353 547 l585 0 l0 -67 l-585 0 l0 67 ZM353 388 l585 0 l0 -68 l-585 0 l0 68 Z" /><glyph glyph-name="*" unicode="&#x5171;" d="M256 -34 l100 0 l0 613 l234 0 l0 90 l-287 0 l0 67 l287 0 l0 105 l75 0 l0 -105 l312 0 l0 -67 l-312 0 l0 -90 l240 0 l0 -613 l94 0 l0 -67 l-743 0 l0 67 ZM11 356 q133 198 206 480 l73 -22 q-40 -127 -86 -239 l0 -704 l-72 0 l0 551 q-43 -79 -90 -147 q-14 41 -31 81 ZM430 -34 l402 0 l0 90 l-402 0 l0 -90 ZM832 513 l-402 0 l0 -89 l402 0 l0 89 ZM430 272 l402 0 l0 89 l-402 0 l0 -89 ZM430 119 l402 0 l0 89 l-402 0 l0 -89 Z" /><glyph glyph-name="*" unicode="&#x91cf;" d="M486 158 l178 0 l0 87 l-155 0 l0 55 l155 0 l0 88 l-141 0 l0 55 l141 0 l0 86 l-191 0 l0 58 l191 0 l0 86 l-139 0 l0 55 l139 0 l0 103 l68 0 l0 -103 l178 0 l0 -141 l82 0 l0 -58 l-82 0 l0 -165 l-67 0 l0 24 l-111 0 l0 -88 l195 0 l0 -55 l-195 0 l0 -87 l209 0 l0 -56 l-209 0 l0 -102 l-68 0 l0 102 l-178 0 l0 56 ZM293 310 q23 -105 68 -177 q44 110 46 243 l-148 0 l0 65 l137 228 l-131 0 l0 63 l210 0 l0 -64 l-137 -229 l137 0 l0 -68 q-4 -166 -64 -300 q106 -105 291 -99 q143 -2 299 6 q-15 -38 -31 -79 q-136 0 -276 2 q-199 -3 -317 104 q-44 -76 -110 -142 q-27 33 -52 54 q68 67 113 145 q-65 88 -93 224 l58 24 ZM9 358 q129 213 185 480 l68 -17 q-26 -122 -68 -233 l0 -717 l-65 0 l0 565 q-41 -81 -89 -156 q-13 42 -31 78 ZM843 443 l0 86 l-111 0 l0 -86 l111 0 ZM843 673 l-111 0 l0 -86 l111 0 l0 86 Z" /><glyph glyph-name="*" unicode="&#x5317;" d="M268 817 l85 0 l0 -329 q0 -244 -54 -354 q-55 -126 -226 -258 q-23 30 -59 73 q156 117 206 228 q48 94 48 311 l0 329 ZM576 824 l85 0 l0 -763 q-2 -80 87 -78 l58 0 q80 0 90 73 q11 73 16 194 q41 -17 88 -33 q-10 -122 -22 -189 q-18 -124 -156 -124 l-92 0 q-159 -4 -154 149 l0 771 Z" /><glyph glyph-name="*" unicode="&#x5fc3;" d="M36 389 l432 0 l0 210 l-237 0 q-48 -98 -104 -170 q-37 29 -65 46 q111 143 173 343 l77 -22 q-22 -65 -47 -123 l203 0 l0 168 l81 0 l0 -168 l368 0 l0 -74 l-368 0 l0 -210 l436 0 l0 -74 l-319 0 l0 -280 q-6 -76 69 -69 l101 0 q68 0 75 51 q7 51 11 145 q37 -16 83 -30 q-5 -73 -18 -151 q-10 -50 -44 -70 q-29 -18 -106 -18 l-118 0 q-139 -6 -133 129 l0 293 l-193 0 q-8 -171 -69 -263 q-74 -115 -266 -186 q-19 32 -50 71 q176 61 242 156 q55 73 63 222 l-277 0 l0 74 Z" /><glyph glyph-name="*" unicode="&#x6d3b;" d="M27 426 l437 0 l0 415 l81 0 l0 -415 l446 0 l0 -73 l-325 0 l0 -319 q0 -37 10 -52 q14 -20 59 -20 l98 0 q71 0 78 52 q7 54 11 142 q37 -16 83 -30 q-9 -102 -18 -145 q-9 -51 -43 -70 q-31 -18 -107 -18 l-118 0 q-76 0 -107 33 q-26 29 -26 96 l0 331 l-191 0 q-4 -205 -80 -311 q-82 -115 -257 -175 q-19 31 -50 70 q174 61 240 159 q63 84 67 257 l-288 0 l0 73 ZM648 538 q114 109 202 227 l73 -52 q-99 -117 -213 -228 l-62 53 ZM98 717 l60 48 q100 -110 192 -221 l-72 -55 q-90 123 -180 228 Z" /><glyph glyph-name="*" unicode="&#x5ba2;" d="M58 -16 l409 0 l0 172 l-320 0 l0 72 l320 0 l0 153 l-284 0 l0 72 l652 0 l0 -72 l-286 0 l0 -153 l322 0 l0 -72 l-322 0 l0 -172 l408 0 l0 -74 l-899 0 l0 74 ZM579 829 l-20 -25 q167 -217 442 -327 q-31 -44 -53 -80 q-261 129 -438 346 q-152 -196 -448 -358 q-19 33 -49 74 q306 153 462 370 l104 0 Z" /><glyph glyph-name="*" unicode="&#x8def;" d="M656 252 q143 -185 241 -337 l-75 -49 q-28 45 -59 94 q-327 -15 -531 -32 q-38 -4 -91 -17 l-44 85 q45 17 82 54 q116 134 252 395 l85 -39 q-123 -210 -263 -394 q205 7 463 19 q-56 85 -124 180 l64 41 ZM571 785 l73 28 q97 -258 358 -410 q-27 -27 -61 -77 q-274 188 -370 459 ZM12 375 q221 180 330 424 l78 -32 q-134 -278 -345 -456 q-25 33 -63 64 Z" /><glyph glyph-name="*" unicode="&#x7406;" d="M20 293 l255 0 l0 273 l-216 0 l0 75 l216 0 l0 190 l81 0 l0 -190 l300 0 l0 191 l82 0 l0 -191 l216 0 l0 -75 l-216 0 l0 -273 l256 0 l0 -76 l-974 0 l0 76 ZM356 293 l300 0 l0 273 l-300 0 l0 -273 ZM351 167 l62 -64 q-165 -119 -343 -221 q-21 31 -52 68 q173 92 333 217 ZM593 99 l51 62 q170 -101 327 -209 l-57 -72 q-157 118 -321 219 Z" /><glyph glyph-name="*" unicode="&#x524d;" d="M23 366 l971 0 l0 -82 l-971 0 l0 82 ZM606 184 l58 53 q175 -158 317 -301 l-71 -65 q-142 157 -304 313 ZM342 239 l69 -50 q-151 -182 -314 -322 q-25 28 -51 54 l-9 9 q170 135 305 309 ZM677 462 q117 178 195 337 l79 -36 q-93 -175 -203 -344 l-71 43 ZM387 815 l78 24 q69 -186 120 -350 l-86 -26 q-49 184 -112 352 ZM77 739 l72 40 q91 -155 171 -314 l-80 -43 q-82 175 -163 317 Z" /><glyph glyph-name="*" unicode="&#x7ebf;" d="M101 663 l365 0 l0 170 l81 0 l0 -170 l364 0 l0 -654 q0 -125 -124 -124 q-65 0 -160 2 q-3 33 -15 86 q94 -8 156 -9 q63 -2 63 62 l0 562 l-286 0 q-3 -91 -21 -161 q175 -140 283 -247 l-61 -65 q-105 116 -246 241 q-67 -146 -256 -254 q-42 58 -56 72 q161 85 221 189 q47 76 55 225 l-283 0 l0 -712 l-80 0 l0 787 Z" /><glyph glyph-name="*" unicode="&#x9650;" d="M808 344 l0 37 l-261 0 l0 -388 l291 0 l0 282 l83 0 l0 -393 l-83 0 l0 35 l-745 0 l0 358 l84 0 l0 -282 l284 0 l0 388 l-341 0 l0 355 l84 0 l0 -280 l257 0 l0 371 l86 0 l0 -371 l261 0 l0 280 l84 0 l0 -392 l-84 0 Z" /><glyph glyph-name="*" unicode="&#x8d28;" d="M143 405 l658 0 q-5 -168 -15 -328 q-12 -185 -175 -184 q-80 -1 -169 5 q-6 41 -14 84 q76 -11 170 -12 q99 -2 109 116 q8 107 12 246 l-305 0 q-12 -165 -68 -266 q-76 -133 -253 -205 q-26 34 -56 66 q164 62 236 178 q52 89 60 227 l-190 0 l0 73 ZM552 817 l72 31 q109 -265 382 -397 q-45 -47 -65 -75 q-272 157 -389 441 ZM8 438 q204 145 348 394 l71 -39 q-151 -263 -362 -422 q-20 30 -57 67 Z" /><glyph glyph-name="*" unicode="&#x52a1;" d="M12 -4 q128 66 233 158 q-40 114 -53 330 l-151 -27 l-12 70 l159 28 q-7 125 -12 279 l79 0 q3 -146 8 -266 l321 56 l9 -69 l-327 -58 q12 -184 40 -286 q109 109 192 248 l66 -42 q-103 -162 -231 -285 q46 -118 118 -162 q54 -32 69 29 q13 68 23 152 q47 -20 78 -29 q-19 -112 -35 -168 q-20 -79 -90 -79 q-55 0 -107 38 q-69 59 -115 165 q-96 -82 -206 -145 q-20 26 -56 63 ZM859 835 l79 0 l0 -827 q0 -123 -115 -124 q-54 -1 -149 1 q-5 45 -16 84 q74 -7 139 -8 q62 -1 62 66 l0 808 ZM728 135 l-77 0 l0 605 l77 0 l0 -605 ZM317 761 l45 48 q69 -49 134 -106 l-52 -56 q-54 54 -127 114 Z" /><glyph glyph-name="*" unicode="&#x88c5;" d="M384 831 l-13 -21 q126 -116 242 -234 l-55 -62 q-106 118 -225 233 q-97 -153 -200 -256 l407 0 q-6 -138 -10 -194 q-5 -147 -135 -147 q-52 0 -129 3 q-6 44 -14 79 q67 -11 127 -12 q71 -1 76 90 q3 48 6 111 l-262 0 l0 -397 q0 -55 59 -55 l163 0 q78 0 88 51 q12 48 18 119 q38 -16 78 -29 q-10 -65 -25 -120 q-25 -92 -139 -92 l-197 0 q-122 0 -122 120 l0 461 q-32 -30 -63 -55 q-29 49 -45 71 q162 124 279 336 l91 0 ZM858 824 l80 0 l0 -823 q0 -120 -120 -121 q-42 0 -156 1 q-5 45 -16 90 q105 -9 148 -9 q64 0 64 63 l0 799 ZM728 126 l-77 0 l0 610 l77 0 l0 -610 Z" /><glyph glyph-name="*" unicode="&#x9910;" d="M452 653 q80 -117 149 -244 q-38 -17 -76 -39 q-18 36 -36 72 q-213 -21 -405 -41 l-35 83 q57 30 99 98 q38 57 74 128 l-184 0 l0 74 l568 0 l0 -74 l-290 0 q-74 -125 -150 -227 q141 10 287 25 q-32 57 -68 111 l67 34 ZM45 275 l232 0 l0 122 l79 0 l0 -122 l227 0 l0 -74 l-227 0 l0 -174 q117 15 241 32 q0 -35 4 -77 q-280 -35 -563 -77 l-23 84 q126 12 262 29 l0 183 l-232 0 l0 74 ZM874 843 l82 0 l0 -838 q0 -123 -119 -123 q-41 0 -145 1 q-6 40 -15 89 q87 -8 135 -8 q62 -1 62 64 l0 815 ZM659 736 l81 0 l0 -631 l-81 0 l0 631 Z" /><glyph glyph-name="*" unicode="4" d="M302 834 l77 0 l0 -151 l215 0 l0 -70 l-215 0 l0 -132 l259 0 l0 -70 l-259 0 l0 -111 l217 0 l0 -235 q0 -107 -97 -108 q-31 -1 -82 0 q-5 32 -15 71 q48 -3 79 -3 q42 0 42 50 l0 158 l-144 0 l0 -367 l-77 0 l0 367 l-137 0 l0 -293 l-73 0 l0 360 l210 0 l0 111 l-284 0 l0 70 l284 0 l0 132 l-147 0 q-25 -57 -57 -108 q-33 19 -67 38 q78 118 109 255 l73 -18 q-13 -51 -29 -97 l118 0 l0 151 ZM866 835 l79 0 l0 -816 q0 -133 -117 -133 q-39 0 -133 1 q-6 38 -16 86 q83 -8 125 -8 q62 0 62 70 l0 800 ZM752 130 l-76 0 l0 610 l76 0 l0 -610 Z" /><glyph glyph-name="*" unicode="&#x4e1a;" d="M164 -133 l-75 0 l0 659 l434 0 l0 -553 q0 -97 -100 -95 q-42 0 -114 2 q-6 38 -15 73 q60 -5 112 -5 q41 -1 41 41 l0 125 l-283 0 l0 -247 ZM24 693 l320 0 q-33 51 -84 111 l63 43 q61 -68 99 -122 l-49 -32 l271 0 l-40 21 q52 65 91 135 l75 -44 q-45 -62 -91 -112 l313 0 l0 -70 l-968 0 l0 70 ZM844 558 l78 0 l0 -554 q0 -121 -115 -122 q-53 -1 -131 1 q-5 40 -14 83 q74 -8 119 -8 q63 0 63 64 l0 536 ZM641 510 l75 0 l0 -445 l-75 0 l0 445 ZM447 459 l-283 0 l0 -106 l283 0 l0 106 ZM164 181 l283 0 l0 106 l-283 0 l0 -106 Z" /><glyph glyph-name="*" unicode="&#x9020;" d="M63 620 l321 0 q3 109 4 222 l86 0 q-2 -105 -5 -222 l455 0 q-12 -387 -23 -547 q-13 -171 -182 -172 q-81 0 -196 3 q-4 39 -15 95 l3 0 q129 -12 200 -11 q96 2 106 106 q12 177 18 445 l-368 0 q-9 -258 -82 -388 q-78 -145 -305 -278 q-28 35 -59 75 q215 121 282 244 q70 111 78 347 l-318 0 l0 81 Z" /><glyph glyph-name="*" unicode="&#x65bd;" d="M72 660 l291 0 q3 88 4 179 l83 0 q-1 -90 -5 -179 l366 0 q-10 -402 -17 -563 q-13 -196 -171 -197 q-88 0 -188 3 q-4 40 -14 96 q106 -12 190 -12 q97 2 103 129 q10 201 15 463 l-288 0 q-15 -309 -82 -437 q-62 -138 -272 -269 q-24 35 -50 68 q198 129 251 249 q57 104 71 389 l-287 0 l0 81 ZM153 492 l80 -30 q-64 -150 -141 -299 q-33 18 -76 37 q80 135 137 292 ZM825 461 l72 24 q50 -119 104 -266 l-81 -28 q-42 132 -95 270 Z" /><glyph glyph-name="*" unicode="&#x8425;" d="M396 630 l154 0 q2 89 3 206 l81 0 q-2 -118 -4 -206 l315 0 q-8 -346 -19 -584 q-11 -155 -141 -158 q-86 -1 -190 4 q-7 45 -16 89 q103 -12 188 -11 q75 2 79 90 q13 233 17 494 l-235 0 q-2 -78 -5 -121 q-19 -391 -316 -567 q-22 31 -58 67 q278 155 295 506 q2 46 4 115 l-152 0 l0 76 ZM13 130 q85 19 164 37 l0 488 l-150 0 l0 77 l397 0 l0 -77 l-167 0 l0 -468 q86 21 164 42 q2 -51 7 -79 q-176 -44 -392 -104 l-23 84 Z" /><glyph glyph-name="*" unicode="&#x6784;" d="M580 710 l376 0 l0 -815 l-78 0 l0 100 l-220 0 l0 -100 l-78 0 l0 815 ZM37 662 l138 0 q1 80 0 177 l78 0 q0 -98 -1 -177 l231 0 q-5 -380 -13 -597 q-4 -178 -134 -171 q-39 0 -114 3 q-7 41 -16 86 q69 -9 113 -9 q66 -2 72 94 q11 234 13 519 l-153 0 q-1 -76 -3 -129 q-3 -387 -186 -596 q-24 31 -58 66 q164 180 167 538 q2 52 3 121 l-137 0 l0 75 ZM878 637 l-220 0 l0 -571 l220 0 l0 571 Z" /><glyph glyph-name="*" unicode="&#x5c71;" d="M301 854 l74 -32 q-22 -36 -46 -71 l535 0 l0 -66 q-92 -112 -252 -196 q167 -60 397 -75 q-32 -44 -56 -83 q-258 34 -432 115 q-197 -83 -475 -132 q-17 31 -41 70 q248 38 431 108 q-113 68 -181 162 q-77 -91 -170 -168 q-30 31 -54 53 q182 145 270 315 ZM93 274 l288 0 q7 48 12 107 l80 0 q-6 -59 -13 -107 l399 0 q-10 -177 -18 -249 q-16 -139 -167 -140 q-58 -1 -175 4 q-6 36 -15 82 q114 -10 188 -11 q84 2 93 85 q9 74 13 158 l-330 0 q-52 -238 -369 -345 q-23 33 -48 66 q284 92 336 279 l-274 0 l0 71 ZM758 686 l-442 0 q80 -96 205 -158 q143 67 237 158 Z" /><glyph glyph-name="*" unicode="&#x6d88;" d="M471 637 l148 0 q1 100 1 204 l81 0 q-1 -103 -3 -204 l267 0 q-7 -374 -20 -603 q-10 -139 -129 -141 q-62 0 -134 3 q-7 41 -16 87 q69 -9 125 -10 q73 0 76 82 q15 245 18 507 l-188 0 q-1 -43 -2 -84 q-5 -390 -236 -616 q-27 34 -59 67 q207 184 216 551 q1 40 2 82 l-147 0 l0 75 ZM370 296 q63 -135 115 -268 q-43 -19 -74 -32 q-7 18 -14 37 q-189 -18 -344 -35 l-34 80 q43 24 70 80 q49 97 101 247 l-167 0 l0 74 l478 0 l0 -74 l-228 0 q-84 -210 -146 -327 q114 8 245 22 q-33 84 -70 165 l68 31 ZM64 757 l397 0 l0 -73 l-397 0 l0 73 Z" /><glyph glyph-name="*" unicode="9" d="M84 233 l315 0 q4 29 4 62 l77 0 q-1 -33 -4 -62 l403 0 q-7 -121 -16 -213 q-12 -125 -154 -126 q-72 -1 -191 2 q-6 41 -17 86 q118 -10 206 -10 q73 0 80 63 q6 47 11 131 l-333 0 q-24 -105 -85 -162 q-94 -90 -306 -139 q-20 33 -47 73 q214 44 295 121 q44 40 64 107 l-302 0 l0 67 ZM422 530 l34 56 q42 -21 81 -41 q13 42 17 104 l-108 0 l0 67 l110 0 l0 131 l72 0 l0 -131 l210 0 q0 -193 9 -264 q11 -80 44 -80 q19 0 28 46 q8 46 11 108 q34 -15 69 -27 q-5 -60 -13 -102 q-20 -109 -97 -109 q-88 0 -110 121 q-13 77 -13 240 l-140 0 q-5 -83 -23 -140 q70 -39 127 -75 l-43 -66 q-53 37 -115 75 q-51 -81 -201 -162 q-22 32 -51 63 q138 68 186 139 q-41 23 -84 47 ZM40 504 q58 10 168 31 l0 105 l-158 0 l0 67 l158 0 l0 141 l71 0 l0 -141 l119 0 l0 -67 l-119 0 l0 -91 q55 11 121 25 q2 -54 3 -71 q-63 -12 -124 -24 l0 -101 q0 -98 -95 -99 q-42 -1 -105 1 q-4 39 -12 72 q65 -5 103 -5 q38 0 38 40 l0 76 q-77 -17 -151 -34 l-17 75 Z" /><glyph glyph-name="*" unicode="&#x53bf;" d="M263 845 l82 -22 q-22 -51 -46 -100 l570 0 q-4 -353 -16 -489 q-11 -164 -163 -163 q-40 0 -141 4 q-5 37 -15 82 q82 -8 145 -8 q90 -1 97 96 q11 126 14 407 l-528 0 q-34 -63 -74 -122 l412 0 l0 -289 l-358 0 l0 -186 q0 -78 82 -78 l461 0 q94 0 110 60 q15 55 24 146 q42 -17 79 -29 q-12 -88 -26 -144 q-25 -109 -168 -109 l-497 0 q-145 0 -145 140 l0 451 q-48 -67 -103 -126 q-22 39 -49 69 q172 187 253 410 ZM523 463 l-281 0 l0 -155 l281 0 l0 155 Z" /><glyph glyph-name="*" unicode="&#x98df;" d="M292 230 q130 61 243 139 l0 454 l85 0 l0 -390 q151 122 269 282 l72 -52 q-144 -192 -341 -335 l0 -280 q0 -67 71 -67 l126 0 q67 0 78 64 q14 67 18 155 q41 -15 87 -28 q-8 -83 -21 -153 q-19 -114 -142 -114 l-168 0 q-134 0 -134 133 l0 232 q-93 -60 -195 -109 q-21 33 -48 69 ZM14 352 q172 229 253 486 l86 -25 q-47 -122 -102 -231 l0 -708 l-83 0 l0 559 q-55 -89 -117 -167 q-16 42 -37 86 Z" /><glyph glyph-name="*" unicode="&#x5174;" d="M596 831 l80 0 l0 -335 q135 69 253 152 l49 -71 q-107 -68 -302 -165 l0 -364 q0 -67 74 -67 l70 0 q71 0 80 67 q9 62 16 162 q43 -17 84 -31 q-10 -94 -22 -161 q-19 -113 -139 -113 l-107 0 q-136 0 -136 134 l0 792 ZM13 49 q129 45 306 117 l0 312 l-285 0 l0 73 l285 0 l0 278 l80 0 l0 -951 l-80 0 l0 205 q-95 -38 -274 -112 l-32 78 Z" /><glyph glyph-name="*" unicode="&#x5f15;" d="M25 472 l436 0 l0 365 l91 0 l0 -365 l438 0 l0 -80 l-438 0 l0 -523 l-91 0 l0 523 l-436 0 l0 80 Z" /><glyph glyph-name="*" unicode="&#x534e;" d="M23 445 l257 0 l0 238 q-104 -11 -222 -20 q-5 34 -13 75 q309 23 535 61 l19 -76 q-107 -17 -238 -31 l0 -247 l316 0 l0 392 l81 0 l0 -392 l236 0 l0 -77 l-236 0 l0 -492 l-81 0 l0 492 l-316 0 q-3 -207 -51 -298 q-54 -108 -211 -207 q-18 24 -55 69 q148 92 194 180 q40 73 42 256 l-257 0 l0 77 Z" /><glyph glyph-name="*" unicode="&#x8857;" d="M309 499 q128 34 238 81 l0 249 l78 0 l0 -214 q145 72 257 169 l53 -60 q-133 -103 -310 -188 l0 -81 q0 -66 82 -66 l105 0 q75 0 86 64 q11 55 14 115 q48 -21 77 -30 q-9 -64 -19 -111 q-19 -109 -141 -109 l-150 0 q-132 0 -132 123 l0 60 q-92 -40 -195 -76 q-17 37 -43 74 ZM29 187 l437 0 l0 131 l79 0 l0 -131 l439 0 l0 -72 l-439 0 l0 -252 l-79 0 l0 252 l-437 0 l0 72 ZM22 544 q176 123 280 303 l70 -36 q-43 -70 -94 -133 l0 -386 l-77 0 l0 300 q-65 -67 -141 -122 q-17 37 -38 74 Z" /><glyph glyph-name="*" unicode="&#x7cbe;" d="M20 144 l448 0 l0 112 l-274 0 l0 -47 l-75 0 l0 481 l205 0 q-47 55 -102 113 l56 47 q73 -70 129 -130 l-37 -30 l232 0 q55 72 111 157 l79 -43 q-51 -61 -99 -114 l203 0 l0 -481 l-75 0 l0 47 l-276 0 l0 -112 l449 0 l0 -71 l-449 0 l0 -209 l-77 0 l0 209 l-448 0 l0 71 ZM545 325 l276 0 l0 115 l-276 0 l0 -115 ZM194 325 l274 0 l0 115 l-274 0 l0 -115 ZM821 620 l-276 0 l0 -113 l276 0 l0 113 ZM194 507 l274 0 l0 113 l-274 0 l0 -113 Z" /><glyph glyph-name="*" unicode="&#x6b63;" d="M309 610 l179 0 q19 48 36 98 l-325 0 l0 -269 q0 -230 -27 -339 q-26 -116 -110 -237 q-24 34 -55 68 q68 102 90 201 q23 94 23 289 l0 360 l865 0 l0 -73 l-374 0 q-22 -53 -43 -98 l338 0 l0 -406 l-74 0 l0 20 l-184 0 l0 -222 q0 -124 -112 -123 q-35 0 -125 2 q-4 37 -13 86 q77 -10 122 -10 q49 0 49 57 l0 210 l-186 0 l0 -20 l-74 0 l0 406 ZM383 291 l449 0 l0 95 l-449 0 l0 -95 ZM832 544 l-449 0 l0 -94 l449 0 l0 94 ZM394 186 l68 -45 q-96 -142 -207 -252 q-25 21 -64 48 q100 92 203 249 ZM780 184 q129 -122 220 -226 l-66 -59 q-95 120 -212 237 l58 48 Z" /><glyph glyph-name="*" unicode="&#x4e2a;" d="M673 147 q139 -105 268 -217 q-33 -33 -61 -63 q-38 36 -80 75 q-330 -10 -593 -29 q-38 -4 -83 -18 l-40 88 q49 16 90 45 q71 52 152 138 l-304 0 l0 71 l153 0 l0 562 l670 0 l0 -562 l151 0 l0 -71 l-560 0 q-93 -91 -192 -173 q260 7 480 15 q-50 43 -105 89 l54 50 ZM251 237 l518 0 l0 119 l-518 0 l0 -119 ZM769 728 l-518 0 l0 -118 l518 0 l0 118 ZM251 424 l518 0 l0 118 l-518 0 l0 -118 Z" /><glyph glyph-name="*" unicode="&#x8d38;" d="M288 221 q-50 -172 -213 -346 q-24 31 -59 69 q148 155 194 313 q44 135 52 442 l-201 0 l0 75 l728 0 l0 -76 l-96 -193 l183 0 l0 -70 q-78 -197 -209 -332 q147 -104 332 -140 q-35 -49 -52 -85 q-215 68 -343 169 q-134 -110 -332 -184 q-16 29 -49 72 q192 64 320 167 q-135 137 -213 339 q-15 -132 -42 -220 ZM597 495 l102 204 l-353 0 q-1 -55 -4 -105 q99 -284 261 -439 q124 121 183 276 l-189 0 l0 64 Z" /><glyph glyph-name="*" unicode="&#x81ea;" d="M149 619 l210 0 q24 104 41 226 l84 -11 q-17 -112 -41 -215 l547 0 l0 -73 l-566 0 q-18 -65 -39 -126 l491 0 l0 -68 q-65 -162 -203 -280 q139 -84 324 -118 q-45 -50 -69 -83 q-159 52 -319 153 q-129 -84 -368 -160 q-28 39 -60 73 q244 63 364 134 q-130 112 -186 281 q-108 -271 -295 -446 q-26 38 -52 68 q223 201 328 572 l-275 0 l0 74 q41 94 75 189 l80 -21 q-35 -88 -71 -169 ZM789 352 l-358 0 q45 -137 177 -236 q128 106 181 236 ZM637 777 l43 55 q97 -61 186 -128 l-53 -64 q-86 73 -176 137 Z" /><glyph glyph-name="*" unicode="&#x5305;" d="M113 742 l786 0 l0 -834 l-85 0 l0 96 l-616 0 l0 -96 l-85 0 l0 834 ZM814 79 l0 589 l-616 0 l0 -589 l616 0 Z" /><glyph glyph-name="*" unicode="&#x5728;" d="M129 540 l436 0 l0 -391 l-358 0 l0 -70 l-78 0 l0 461 ZM19 762 l978 0 l0 -75 l-164 0 l0 -671 q0 -133 -130 -134 q-93 0 -181 1 q-5 45 -16 90 q112 -8 170 -8 q73 0 73 79 l0 643 l-730 0 l0 75 ZM487 470 l-280 0 l0 -251 l280 0 l0 251 Z" /><glyph glyph-name="*" unicode="&#x9ad8;" d="M170 796 l672 0 l0 -326 l-78 0 l0 40 l-516 0 l0 -45 l-78 0 l0 331 ZM189 167 l0 72 l43 102 l-215 0 l0 72 l981 0 l0 -72 l-684 0 l-43 -103 l591 0 q-12 -115 -22 -188 q-24 -161 -187 -161 q-113 0 -243 4 q-6 33 -17 86 q142 -12 247 -12 q106 0 120 96 q7 39 14 104 l-585 0 ZM764 725 l-516 0 l0 -143 l516 0 l0 143 Z" /><glyph glyph-name="*" unicode="&#x65e0;" d="M127 406 l519 0 l0 -350 l-441 0 l0 -72 l-78 0 l0 422 ZM85 717 l0 74 l856 0 l0 -771 q0 -140 -127 -140 q-71 0 -195 1 q-3 33 -17 85 q121 -7 189 -7 q68 0 68 79 l0 679 l-774 0 ZM568 127 l0 208 l-363 0 l0 -208 l363 0 ZM29 596 l754 0 l0 -73 l-754 0 l0 73 Z" /><glyph glyph-name="*" unicode="&#x90e8;" d="M291 850 l77 -28 q-21 -40 -45 -79 l542 0 l0 -72 q-102 -128 -262 -223 q170 -73 407 -89 q-33 -50 -56 -89 q-259 38 -436 133 q-198 -98 -470 -153 q-21 40 -43 76 q247 39 435 124 q-117 80 -189 190 q-71 -95 -161 -178 q-27 33 -54 57 q168 145 255 331 ZM174 264 l675 0 l0 -391 l-77 0 l0 57 l-521 0 l0 -57 l-77 0 l0 391 ZM772 193 l-521 0 l0 -193 l521 0 l0 193 ZM759 672 l-444 0 q80 -110 204 -182 q139 76 240 182 Z" /><glyph glyph-name="*" unicode="&#x5e74;" d="M162 302 l690 0 l0 -439 l-79 0 l0 66 l-531 0 l0 -68 l-80 0 l0 441 ZM586 829 l-24 -29 q166 -214 439 -323 q-31 -44 -53 -80 q-80 39 -152 88 l0 -57 l-579 0 l0 50 q-72 -48 -155 -93 q-19 33 -49 74 q306 153 462 370 l111 0 ZM773 230 l-531 0 l0 -230 l531 0 l0 230 ZM510 743 q-101 -130 -264 -245 l529 0 q-150 103 -265 245 Z" /><glyph glyph-name="*" unicode="&#x7aef;" d="M381 844 l77 -32 q-32 -43 -66 -83 l506 0 l0 -70 q-184 -211 -486 -346 l484 0 l0 -450 l-79 0 l0 64 l-522 0 l0 -64 l-79 0 l0 371 q-77 -29 -161 -56 q-21 37 -45 73 q222 60 400 147 q-62 63 -133 128 l60 52 q83 -75 152 -138 q174 96 303 221 l-460 0 q-112 -122 -256 -225 q-27 37 -51 64 q196 128 356 344 ZM817 242 l-522 0 l0 -245 l522 0 l0 245 Z" /><glyph glyph-name="*" unicode="&#x7f8e;" d="M299 314 l602 0 l0 -445 l-79 0 l0 67 l-444 0 l0 -67 l-79 0 l0 445 ZM208 474 q0 -273 -28 -368 q-28 -108 -118 -240 q-22 34 -54 69 q70 100 95 201 q25 97 25 285 l0 334 q433 14 764 59 l48 -82 q-410 -41 -732 -53 l0 -131 l784 0 l0 -74 l-784 0 ZM822 242 l-444 0 l0 -236 l444 0 l0 236 Z" /><glyph glyph-name="*" unicode="&#x65b0;" d="M164 -122 l-77 0 l0 813 l292 0 q25 73 48 153 l85 -24 q-26 -69 -51 -129 l464 0 l0 -696 q0 -112 -112 -112 q-63 0 -151 2 q-5 34 -14 77 q86 -7 145 -7 q54 0 54 57 l0 605 l-683 0 l0 -739 ZM300 475 l410 0 l0 -348 l-335 0 l0 -68 l-75 0 l0 416 ZM635 403 l-260 0 l0 -205 l260 0 l0 205 Z" /><glyph glyph-name="*" unicode="&#x7ec4;" d="M517 721 l437 0 l0 -826 l-79 0 l0 96 l-279 0 l0 -96 l-79 0 l0 826 ZM875 648 l-279 0 l0 -586 l279 0 l0 586 ZM12 142 q113 150 179 333 l-173 0 l0 67 l189 0 l0 156 q-77 -11 -157 -21 q-8 32 -21 68 q206 23 399 67 l22 -69 q-82 -17 -168 -32 l0 -169 l185 0 l0 -67 l-185 0 l0 -128 l36 36 q78 -68 153 -143 l-56 -57 q-60 68 -133 139 l0 -460 l-75 0 l0 475 q-58 -146 -157 -280 q-16 39 -38 85 Z" /><glyph glyph-name="*" unicode="&#x4f1a;" d="M165 799 l683 0 l0 -392 l-79 0 l0 32 l-524 0 l0 -32 l-80 0 l0 392 ZM568 326 l378 0 l0 -457 l-75 0 l0 67 l-227 0 l0 -67 l-76 0 l0 457 ZM68 326 l378 0 l0 -457 l-76 0 l0 66 l-226 0 l0 -66 l-76 0 l0 457 ZM769 730 l-524 0 l0 -222 l524 0 l0 222 ZM871 257 l-227 0 l0 -257 l227 0 l0 257 ZM370 257 l-226 0 l0 -255 l226 0 l0 255 Z" /><glyph glyph-name="*" unicode="&#x4ebf;" d="M491 815 l63 38 q44 -57 79 -108 l-38 -23 l362 0 l0 -61 l-351 0 l0 -71 l321 0 l0 -62 l-321 0 l0 -71 l321 0 l0 -61 l-321 0 l0 -74 l371 0 l0 -61 l-768 0 l0 -39 l-73 0 l0 336 q-41 -48 -84 -90 q-19 30 -46 62 q147 138 232 316 l71 -26 q-28 -51 -57 -98 l301 0 q-27 46 -62 93 ZM138 184 l748 0 l0 -319 l-73 0 l0 50 l-602 0 l0 -50 l-73 0 l0 319 ZM813 120 l-602 0 l0 -141 l602 0 l0 141 ZM209 322 l324 0 l0 74 l-324 0 l0 -74 ZM209 457 l324 0 l0 71 l-324 0 l0 -71 ZM209 590 l324 0 l0 71 l-320 0 l-4 -6 l0 -65 Z" /><glyph glyph-name="*" unicode="&#x5408;" d="M92 770 l852 0 l0 -897 l-83 0 l0 59 l-686 0 l0 -59 l-83 0 l0 897 ZM733 277 q46 0 115 2 l-14 -81 l-114 0 q-132 0 -132 119 l0 374 l-142 0 q-1 -280 -32 -368 q-33 -111 -174 -202 q-26 31 -62 64 q134 80 160 173 q26 64 27 333 l-190 0 l0 -682 l686 0 l0 682 l-192 0 l0 -363 q0 -51 64 -51 Z" /><glyph glyph-name="*" unicode="&#x8fd9;" d="M74 792 l867 0 l0 -924 l-75 0 l0 48 l-717 0 l0 -49 l-75 0 l0 925 ZM866 721 l-717 0 l0 -734 l717 0 l0 734 ZM190 319 l253 0 l0 83 l-208 0 l0 66 l208 0 l0 82 l-233 0 l0 65 l233 0 l0 83 l72 0 l0 -83 l271 0 l0 -65 l-271 0 l0 -82 l238 0 l0 -66 l-238 0 l0 -83 l265 0 q-3 -60 -9 -130 q-8 -113 -111 -113 q-44 0 -95 3 q-5 36 -15 77 q53 -8 94 -9 q52 -3 56 49 q3 27 4 58 l-189 0 l0 -243 l-72 0 l0 243 l-253 0 l0 65 Z" /><glyph glyph-name="*" unicode="&#x552e;" d="M74 792 l867 0 l0 -924 l-77 0 l0 49 l-714 0 l0 -50 l-76 0 l0 925 ZM864 721 l-714 0 l0 -733 l714 0 l0 733 ZM196 160 l273 0 l0 196 l-238 0 l0 67 l238 0 l0 133 l-257 0 l0 67 l590 0 l0 -67 l-259 0 l0 -133 l239 0 l0 -67 l-239 0 l0 -196 l275 0 l0 -67 l-622 0 l0 67 ZM594 293 l55 41 q55 -56 94 -106 l-59 -44 q-47 64 -90 109 Z" /><glyph glyph-name="*" unicode="&#x5708;" d="M68 803 l873 0 l0 -934 l-71 0 l0 45 l-730 0 l0 -45 l-72 0 l0 934 ZM168 477 l225 0 q21 31 37 65 l-226 0 l0 59 l123 0 q-37 40 -86 82 l46 43 q52 -40 97 -83 l-43 -42 l112 0 q16 51 30 120 l69 0 q-13 -63 -31 -120 l141 0 l-35 32 q53 46 92 94 l54 -40 q-46 -49 -86 -86 l119 0 l0 -59 l-304 0 q-12 -34 -30 -65 l373 0 l0 -60 l-183 0 q72 -88 201 -118 q-25 -34 -48 -67 q-93 37 -160 104 q-2 -50 -7 -105 q-7 -86 -98 -86 q-40 0 -93 2 q-4 31 -12 64 q55 -8 89 -8 q50 0 53 39 q2 15 3 42 l-226 0 l0 -147 q0 -55 62 -55 l195 0 q68 0 83 47 q11 35 19 85 q29 -14 62 -24 q-12 -54 -23 -88 q-23 -80 -129 -80 l-218 0 q-114 0 -114 108 l0 160 q-53 -38 -118 -71 q-18 29 -43 60 l0 -297 l730 0 l0 754 l-730 0 l0 -455 q125 55 204 136 l-176 0 l0 60 ZM363 341 l286 0 q-33 34 -60 76 l-156 0 q-30 -40 -70 -76 Z" /><glyph glyph-name="*" unicode="&#x56db;" d="M40 721 l291 0 q24 60 43 123 l82 -21 q-17 -52 -37 -102 l575 0 l0 -73 l-606 0 q-59 -132 -138 -249 l0 -524 l-77 0 l0 419 q-53 -67 -114 -128 q-20 34 -47 71 q182 189 286 411 l-258 0 l0 73 ZM285 17 l310 0 l0 296 l-257 0 l0 72 l257 0 l0 199 l81 0 l0 -199 l262 0 l0 -72 l-262 0 l0 -296 l318 0 l0 -69 l-709 0 l0 69 Z" /><glyph glyph-name="*" unicode="&#x666f;" d="M24 555 l150 0 q1 21 1 165 l-110 0 l0 66 l517 0 l0 -66 l-108 0 l0 -165 l141 0 l0 -65 l-141 0 l0 -213 l-72 0 l0 213 l-160 0 q-12 -143 -141 -247 q-26 29 -54 57 q113 89 122 190 l-145 0 l0 65 ZM22 -16 l443 0 l0 133 l-353 0 l0 69 l353 0 l0 77 l78 0 l0 -77 l362 0 l0 -69 l-362 0 l0 -133 l448 0 l0 -69 l-969 0 l0 69 ZM928 825 l0 -455 q0 -105 -104 -107 q-60 -2 -138 0 q-4 37 -12 78 q83 -5 125 -5 q56 0 56 62 l0 427 l73 0 ZM247 555 l155 0 l0 165 l-154 0 q0 -120 -1 -165 ZM655 770 l72 0 l0 -343 l-72 0 l0 343 Z" /><glyph glyph-name="*" unicode="&#x4e94;" d="M528 -62 q113 80 200 195 q-35 149 -48 460 l-256 0 l0 -155 l200 0 q-2 -174 -7 -302 q-5 -122 -120 -122 q-39 0 -73 1 q-6 33 -17 78 q43 -5 78 -5 q58 0 60 67 q5 96 5 216 l-127 0 q-4 -178 -29 -276 q-31 -117 -116 -228 q-28 29 -60 56 q81 104 107 204 q24 96 24 314 l0 223 l328 0 q-2 85 -4 179 l78 0 q-1 -95 1 -179 l245 0 l0 -71 l-242 0 q9 -233 32 -374 q70 112 120 252 l73 -35 q-77 -183 -171 -318 q18 -67 44 -105 q27 -39 47 -39 q19 0 24 27 q8 44 15 139 q39 -17 72 -27 q-10 -97 -18 -139 q-19 -90 -78 -90 q-64 0 -113 66 q-28 37 -48 95 q-80 -98 -172 -165 q-23 27 -54 58 ZM8 150 q55 13 122 31 l0 338 l-113 0 l0 72 l113 0 l0 240 l74 0 l0 -240 l107 0 l0 -72 l-107 0 l0 -318 q49 15 105 31 q0 -45 2 -77 q-161 -47 -289 -90 l-14 85 ZM789 792 l46 47 q62 -47 122 -100 l-50 -54 q-55 55 -118 107 Z" /><glyph glyph-name="*" unicode="&#x79d1;" d="M512 -83 q112 93 198 216 q-34 155 -42 469 l-347 0 l0 70 l345 0 q-1 80 -2 172 l77 0 q-1 -90 0 -172 l244 0 l0 -70 l-243 0 q5 -224 27 -377 q71 122 119 270 l70 -30 q-75 -197 -169 -344 q21 -78 53 -127 q26 -43 45 -43 q18 0 25 43 q9 51 14 154 q42 -17 74 -26 q-14 -117 -24 -165 q-17 -87 -80 -88 q-49 1 -90 48 q-41 46 -70 127 q-76 -103 -162 -176 q-28 24 -62 49 ZM11 70 q65 20 128 40 l0 387 l-117 0 l0 70 l117 0 l0 275 l73 0 l0 -275 l110 0 l0 -70 l-110 0 l0 -362 q52 18 103 37 q0 -11 7 -73 q-139 -51 -292 -109 l-19 80 ZM345 492 l252 0 l0 -308 l-68 0 l0 22 l-116 0 l0 -34 l-68 0 l0 320 ZM268 56 q179 28 363 65 q-1 -16 4 -67 q-147 -27 -341 -67 l-26 69 ZM529 428 l-116 0 l0 -158 l116 0 l0 158 ZM822 830 q73 -51 118 -91 l-46 -52 q-45 42 -115 98 l43 45 Z" /><glyph glyph-name="*" unicode="&#x9645;" d="M370 431 l542 0 l0 -337 l-69 0 l0 22 l-93 0 l0 -107 q0 -54 52 -54 l62 0 q49 0 56 49 q6 39 8 92 q37 -17 73 -30 q-7 -62 -15 -93 q-17 -84 -112 -84 l-90 0 q-104 0 -104 99 l0 128 l-92 0 q-13 -108 -85 -161 q-60 -49 -212 -92 q-21 34 -45 68 q154 33 211 79 q48 38 58 106 l-76 0 l0 -22 l-69 0 l0 337 ZM17 107 q53 13 123 31 l0 378 l-113 0 l0 71 l113 0 l0 247 l72 0 l0 -247 l102 0 l0 -71 l-102 0 l0 -359 q55 15 120 33 q1 -43 3 -75 q-153 -41 -303 -90 l-15 82 ZM335 558 l178 0 q-27 43 -61 86 l59 37 q40 -50 75 -98 l-37 -25 l149 0 q41 61 75 124 l71 -40 q-33 -43 -66 -84 l204 0 l0 -60 l-647 0 l0 60 ZM358 745 l262 0 q-18 36 -40 72 l69 29 q31 -53 52 -101 l247 0 l0 -59 l-590 0 l0 59 ZM439 174 l404 0 l0 73 l-404 0 l0 -73 ZM843 374 l-404 0 l0 -72 l404 0 l0 72 Z" /><glyph glyph-name="*" unicode="&#x4f53;" d="M270 823 q-21 -96 -46 -184 l264 0 l0 -72 q-28 -256 -147 -445 q90 -102 218 -124 q152 -27 442 -14 q-17 -39 -29 -83 q-271 -9 -422 20 q-151 26 -254 136 q-86 -113 -209 -200 q-33 31 -65 58 q133 90 222 206 q-72 106 -113 265 q-31 -69 -66 -131 q-20 28 -57 68 q122 217 180 513 l82 -13 ZM610 832 l82 0 l0 -332 l44 51 q140 -95 253 -187 l-53 -68 q-105 92 -244 192 l0 -465 l-82 0 l0 809 ZM408 564 l-208 0 q-12 -36 -24 -69 q41 -188 114 -305 q100 164 118 374 Z" /><glyph glyph-name="*" unicode="&#x5b89;" d="M154 332 l705 0 l0 -461 l-71 0 l0 43 l-562 0 l0 -43 l-72 0 l0 461 ZM296 856 l74 -32 q-22 -36 -47 -71 l536 0 l0 -66 q-91 -111 -246 -193 q164 -55 391 -67 q-33 -46 -56 -83 q-255 31 -429 105 q-196 -84 -474 -132 q-18 35 -42 72 q245 35 428 105 q-117 68 -184 161 q-74 -84 -167 -162 q-27 29 -54 54 q177 143 270 309 ZM753 688 l-444 0 q80 -95 210 -157 q139 66 234 157 ZM226 151 l245 0 l0 122 l-245 0 l0 -122 ZM788 273 l-245 0 l0 -122 l245 0 l0 122 ZM543 -26 l245 0 l0 121 l-245 0 l0 -121 ZM226 -26 l245 0 l0 121 l-245 0 l0 -121 Z" /><glyph glyph-name="*" unicode="&#x5185;" d="M14 -54 q408 182 440 546 l-422 0 l0 77 l426 0 q2 133 2 268 l86 0 q0 -133 -2 -268 l439 0 l0 -77 l-440 0 q70 -396 461 -522 q-51 -49 -75 -80 q-323 129 -422 461 q-77 -300 -432 -481 q-20 27 -61 76 Z" /><glyph glyph-name="*" unicode="&#x503c;" d="M933 -54 l-55 -74 q-164 95 -348 189 q-147 -112 -465 -196 q-17 35 -46 79 q288 64 429 157 q-138 69 -288 137 q68 147 120 286 l-252 0 l0 73 l278 0 q45 126 77 247 l88 -18 q-39 -124 -76 -229 l590 0 l0 -73 l-206 0 q-43 -261 -186 -407 q174 -84 340 -171 ZM696 524 l-328 0 q-55 -146 -105 -253 q128 -58 252 -117 q144 138 181 370 Z" /><glyph glyph-name="*" unicode="&#x5b50;" d="M432 51 l-59 -62 q-57 52 -111 101 q-74 -112 -197 -207 q-20 30 -45 64 q118 86 186 193 q-77 67 -149 127 q36 126 66 293 l-105 0 l0 74 l117 0 q16 98 30 209 l81 -11 q-18 -109 -34 -198 l187 0 l0 -64 q-22 -270 -97 -413 q65 -52 130 -106 ZM398 397 l272 0 l0 155 q98 83 179 150 l-415 0 l0 73 l525 0 l0 -79 q-107 -91 -211 -179 l0 -120 l252 0 l0 -72 l-252 0 l0 -317 q0 -120 -127 -120 q-42 0 -130 2 q-5 37 -13 80 q89 -8 132 -9 q60 0 60 58 l0 306 l-272 0 l0 72 ZM323 560 l-125 0 q-35 -189 -60 -272 q52 -41 105 -83 q66 138 80 355 Z" /><glyph glyph-name="*" unicode="&#x996e;" d="M381 59 l-52 -59 q-36 41 -81 85 q-68 -114 -185 -211 q-21 31 -49 60 q118 91 182 202 q-65 60 -145 125 q33 154 54 315 l-79 0 l0 67 l88 0 q11 96 19 194 l76 -6 q-11 -97 -23 -188 l175 0 l0 -55 q-8 -281 -78 -437 q55 -49 98 -92 ZM358 221 l255 0 q11 54 12 123 l-225 0 l0 67 l546 0 l0 -67 l-246 0 q-1 -66 -11 -123 l294 0 l0 -67 l-261 0 q91 -165 278 -199 q-37 -44 -59 -80 q-187 64 -278 254 q-65 -176 -309 -266 q-22 36 -55 72 q234 67 295 219 l-236 0 l0 67 ZM426 802 l488 0 l0 -326 l-72 0 l0 41 l-344 0 l0 -41 l-72 0 l0 326 ZM842 735 l-344 0 l0 -150 l344 0 l0 150 ZM292 576 l-116 0 q-23 -158 -49 -293 q53 -44 100 -84 q56 140 65 377 Z" /><glyph glyph-name="*" unicode="&#x5e7f;" d="M20 396 l460 0 l0 108 l284 207 l-640 0 l0 75 l772 0 l0 -78 l-332 -242 l0 -70 l434 0 l0 -75 l-434 0 l0 -312 q0 -132 -138 -132 q-46 0 -157 2 q-4 39 -12 90 q73 -9 153 -10 q70 0 70 71 l0 291 l-460 0 l0 75 Z" /><glyph glyph-name="*" unicode="&#x697c;" d="M20 258 l464 0 l0 62 l195 123 l-479 0 l0 72 l600 0 l0 -80 l-235 -150 l0 -27 l433 0 l0 -73 l-433 0 l0 -183 q0 -125 -125 -125 q-51 0 -148 2 q-4 37 -12 88 q78 -11 139 -11 q65 0 65 70 l0 159 l-464 0 l0 73 ZM57 694 l456 0 q-37 52 -88 114 l66 45 q62 -68 103 -127 l-47 -32 l417 0 l0 -200 l-80 0 l0 128 l-747 0 l0 -128 l-80 0 l0 200 Z" /><glyph glyph-name="*" unicode="&#x6211;" d="M23 215 l463 0 l0 56 l189 107 l-465 0 l0 72 l581 0 l0 -83 l-225 -130 l0 -22 l426 0 l0 -72 l-426 0 l0 -149 q0 -117 -118 -117 q-65 0 -153 2 q-3 33 -12 84 q79 -8 152 -9 q51 -1 51 54 l0 135 l-463 0 l0 72 ZM56 619 l903 0 l0 -200 l-78 0 l0 128 l-746 0 l0 -128 l-79 0 l0 200 ZM683 677 q66 71 125 153 l71 -52 q-64 -74 -137 -154 l-59 53 ZM402 810 l64 38 q61 -79 112 -161 l-71 -41 q-44 77 -105 164 ZM135 781 l58 42 q60 -66 119 -143 l-67 -48 q-56 84 -110 149 Z" /><glyph glyph-name="*" unicode="&#x8005;" d="M28 405 l966 0 l0 -78 l-421 0 l0 -302 q0 -139 -140 -139 q-82 0 -185 3 q-5 40 -15 90 q113 -9 177 -9 q78 -1 78 77 l0 280 l-460 0 l0 78 ZM63 693 l891 0 l0 -202 l-83 0 l0 127 l-724 0 l0 -127 l-84 0 l0 202 ZM427 813 l75 41 q43 -54 80 -111 l-78 -48 q-37 63 -77 118 Z" /><glyph glyph-name="*" unicode="&#x805a;" d="M51 -51 q249 38 406 127 q-129 60 -273 124 q47 71 93 147 l-260 0 l0 73 l303 0 q50 88 99 182 l78 -32 q-44 -77 -86 -150 l588 0 l0 -73 l-212 0 q-50 -150 -171 -256 q156 -71 311 -143 l-49 -79 q-151 79 -334 166 q-172 -116 -451 -167 q-18 37 -42 81 ZM65 696 l446 0 q-37 55 -86 112 l66 45 q60 -65 102 -126 l-46 -31 l405 0 l0 -188 l-80 0 l0 115 l-727 0 l0 -115 l-80 0 l0 188 ZM298 230 q119 -51 237 -103 q118 90 165 220 l-332 0 q-35 -60 -70 -117 Z" /><glyph glyph-name="*" unicode="&#x9700;" d="M26 -2 l437 0 l0 225 l-352 0 l0 74 l352 0 l0 144 l-390 0 l0 73 l864 0 l0 -73 l-390 0 l0 -144 l356 0 l0 -74 l-356 0 l0 -225 l443 0 l0 -75 l-964 0 l0 75 ZM57 710 l433 0 q-25 49 -60 104 l72 34 q41 -56 72 -115 l-44 -23 l425 0 l0 -166 l-80 0 l0 92 l-737 0 l0 -92 l-81 0 l0 166 ZM664 155 l59 45 q68 -65 120 -132 l-64 -50 q-50 69 -115 137 Z" /><glyph glyph-name="*" unicode="&#x4f11;" d="M18 -63 q365 68 470 217 l-454 0 l0 73 l491 0 q33 103 30 360 l84 0 q0 -255 -28 -360 l375 0 l0 -73 l-403 0 q-8 -16 -19 -34 q212 -89 415 -184 l-43 -75 q-212 108 -419 201 q-135 -132 -452 -203 q-22 43 -47 78 ZM52 700 l454 0 q-25 45 -66 104 l72 41 q33 -44 79 -115 l-54 -30 l423 0 l0 -177 l-79 0 l0 104 l-749 0 l0 -104 l-80 0 l0 177 ZM174 433 q114 -51 214 -108 l-42 -68 q-99 60 -209 113 l37 63 ZM263 585 q115 -56 209 -112 l-44 -68 q-92 60 -203 121 l38 59 Z" /><glyph glyph-name="*" unicode="2" d="M339 656 l72 -31 q-23 -28 -46 -54 l457 0 l0 -63 q-82 -95 -218 -164 q164 -51 401 -52 q-27 -39 -50 -81 q-264 21 -439 93 q-192 -77 -470 -112 q-17 36 -42 71 q250 25 425 83 q-95 54 -154 130 q-75 -72 -154 -128 q-22 26 -52 53 q176 120 270 255 ZM186 186 l646 0 l0 -315 l-74 0 l0 41 l-499 0 l0 -41 l-73 0 l0 315 ZM67 725 l428 0 q-27 41 -65 87 l67 43 q40 -46 82 -101 l-45 -29 l418 0 l0 -185 l-73 0 l0 120 l-738 0 l0 -119 l-74 0 l0 184 ZM758 122 l-499 0 l0 -146 l499 0 l0 146 ZM717 507 l-379 0 q67 -79 176 -129 q126 54 203 129 Z" /><glyph glyph-name="*" unicode="&#x95f2;" d="M31 -33 q299 85 476 280 q-14 28 -32 54 q-148 -152 -408 -234 q-15 33 -35 67 q255 70 396 223 q-16 17 -35 33 q-132 -93 -323 -153 q-19 33 -44 70 q236 53 378 177 l-250 0 l0 71 l707 0 l0 -71 l-359 0 q-25 -27 -55 -52 q78 -63 121 -140 q155 75 275 155 l47 -63 q-81 -49 -172 -96 q88 -190 285 -266 q-33 -37 -62 -77 q-193 99 -287 310 q-28 -14 -57 -28 q56 -211 -18 -307 q-35 -42 -136 -42 q-40 0 -125 3 q-6 38 -15 82 q77 -9 138 -9 q106 -6 104 129 q-2 44 -11 85 q-176 -172 -468 -269 q-15 32 -35 68 ZM52 717 l448 0 q-29 44 -68 94 l69 45 q44 -55 81 -108 l-50 -31 l428 0 l0 -169 l-79 0 l0 96 l-749 0 l0 -96 l-80 0 l0 169 Z" /><glyph glyph-name="*" unicode="&#x4f9b;" d="M125 254 l764 0 l0 -378 l-71 0 l0 37 l-622 0 l0 -37 l-71 0 l0 378 ZM213 503 l588 0 l0 -213 l-69 0 l0 27 l-450 0 l0 -27 l-69 0 l0 213 ZM57 740 l420 0 q-22 38 -47 75 l68 35 q35 -52 67 -110 l390 0 l0 -200 l-74 0 l0 139 l-749 0 l0 -139 l-75 0 l0 200 ZM190 619 l633 0 l0 -57 l-633 0 l0 57 ZM732 446 l-450 0 l0 -71 l450 0 l0 71 ZM196 -27 l275 0 l0 82 l-275 0 l0 -82 ZM543 -27 l275 0 l0 82 l-275 0 l0 -82 ZM196 112 l275 0 l0 83 l-275 0 l0 -83 ZM818 195 l-275 0 l0 -83 l275 0 l0 83 Z" /><glyph glyph-name="*" unicode="&#x7cfb;" d="M110 585 q86 -124 166 -242 q59 145 74 314 l-310 0 l0 75 l392 0 l0 -72 q-28 -215 -106 -391 q81 -118 156 -230 l-71 -47 q-62 97 -125 195 q-88 -161 -225 -286 q-19 31 -48 73 q141 127 225 287 q-92 141 -188 283 l60 41 ZM471 624 l330 0 l0 212 l80 0 l0 -212 l121 0 l0 -75 l-121 0 l0 -519 q0 -143 -141 -143 q-45 0 -147 1 q-5 36 -16 89 q98 -8 150 -8 q74 0 74 75 l0 505 l-330 0 l0 75 ZM489 425 l64 39 q81 -118 142 -229 l-74 -42 q-59 111 -132 232 Z" /><glyph glyph-name="*" unicode="&#x4fe1;" d="M277 403 l519 0 q80 0 92 51 q12 41 22 110 q32 -15 78 -31 q-15 -67 -28 -110 q-25 -89 -145 -89 l-554 0 q-131 0 -131 128 l0 332 l711 0 l0 -300 l-77 0 l0 33 l-558 0 l0 -57 q0 -67 71 -67 ZM15 233 l691 0 l0 72 l80 0 l0 -72 l214 0 l0 -70 l-214 0 l0 -162 q0 -117 -129 -117 q-48 0 -158 1 q-5 36 -15 85 q91 -7 151 -7 q71 0 71 61 l0 139 l-691 0 l0 70 ZM206 726 l0 -131 l558 0 l0 131 l-558 0 ZM201 108 l48 52 q110 -86 165 -136 l-58 -58 q-91 87 -155 142 Z" /><glyph glyph-name="*" unicode="&#x529b;" d="M62 -134 q-28 38 -54 69 q123 172 123 494 l0 366 l813 0 l0 -311 l-75 0 l0 36 l-663 0 l0 -107 q0 -334 -144 -547 ZM680 89 l54 46 q146 -127 232 -219 l-61 -54 q-30 34 -61 66 q-301 -1 -493 -16 q-27 -2 -70 -12 l-33 73 q59 23 92 50 q56 56 120 141 l-242 0 l0 69 l778 0 l0 -69 l-434 0 q-83 -103 -155 -174 q186 1 373 5 q-49 48 -100 94 ZM206 726 l0 -136 l663 0 l0 136 l-663 0 ZM288 412 l620 0 l0 -69 l-620 0 l0 69 Z" /><glyph glyph-name="*" unicode="3" d="M611 512 l0 -99 l367 0 l0 -69 l-367 0 l0 -115 l272 0 l0 -362 l-75 0 l0 51 l-463 0 l0 -51 l-76 0 l0 362 l267 0 l0 115 l-336 0 q-2 -300 -129 -471 q-22 28 -59 66 q111 158 111 423 l0 437 l780 0 l0 -316 l-75 0 l0 49 l-628 0 l0 -119 l336 0 l0 99 l75 0 ZM808 162 l-463 0 l0 -176 l463 0 l0 176 ZM828 730 l-628 0 l0 -129 l628 0 l0 129 Z" /><glyph glyph-name="*" unicode="&#x60c5;" d="M232 459 l162 0 l0 86 l73 0 l0 -86 l205 0 l0 86 l73 0 l0 -86 l186 0 l0 -65 l-186 0 l0 -109 l232 0 l0 -66 l-417 0 q45 -73 110 -126 q77 37 200 105 l42 -73 q-105 -43 -180 -75 q111 -65 266 -84 q-31 -40 -56 -75 q-324 67 -459 328 l-106 0 l0 -248 q13 4 197 62 q-2 -37 0 -79 q-90 -26 -179 -57 q-23 -9 -71 -33 l-44 60 q24 16 24 69 l0 226 l-117 0 q-9 -203 -115 -353 q-24 34 -56 70 q103 134 103 435 l0 425 l808 0 l0 -260 l-76 0 l0 34 l-657 0 l0 -132 q0 -84 -3 -153 l203 0 l0 109 l-162 0 l0 65 ZM851 731 l-657 0 l0 -96 l657 0 l0 96 ZM467 285 l205 0 l0 109 l-205 0 l0 -109 Z" /><glyph glyph-name="*" unicode="&#x4e07;" d="M830 -125 l0 62 l-729 0 l0 710 l84 0 l0 -635 l278 0 l0 819 l86 0 l0 -819 l281 0 l0 635 l85 0 l0 -772 l-85 0 Z" /><glyph glyph-name="*" unicode="&#x4e16;" d="M838 828 l78 0 l0 -948 l-78 0 l0 948 ZM523 809 l78 0 l0 -910 l-78 0 l0 910 ZM209 824 l78 0 l0 -404 q0 -370 -192 -546 q-25 28 -59 62 q174 156 173 510 l0 378 ZM91 564 l73 -18 q-35 -157 -79 -280 q-38 15 -71 25 q46 128 77 273 ZM320 531 l68 28 q55 -128 95 -232 l-74 -31 q-38 112 -89 235 ZM632 529 l68 30 q54 -122 99 -235 l-72 -31 q-41 116 -95 236 Z" /><glyph glyph-name="*" unicode="&#x878d;" d="M29 15 l433 0 l0 661 l-377 0 l0 79 l844 0 l0 -79 l-380 0 l0 -661 l435 0 l0 -77 l-955 0 l0 77 Z" /><glyph glyph-name="*" unicode="&#x5883;" d="M191 -30 l-77 0 l0 512 l353 0 l0 136 l-437 0 l0 75 l462 0 q-31 62 -72 125 l76 36 q43 -62 78 -128 l-65 -33 l479 0 l0 -75 l-442 0 l0 -136 l360 0 l0 -371 q0 -124 -118 -124 q-54 0 -142 2 q-4 32 -13 79 q82 -5 131 -5 q65 0 65 65 l0 280 l-283 0 l0 -541 l-79 0 l0 541 l-276 0 l0 -438 Z" /><glyph glyph-name="*" unicode="&#x800c;" d="M515 581 l79 0 l0 -153 l306 0 l0 -342 q0 -117 -100 -117 q-26 0 -148 1 q-6 32 -15 80 q99 -6 118 -6 q67 -2 67 61 l0 252 l-228 0 l0 -488 l-79 0 l0 488 l-223 0 l0 -413 l-78 0 l0 391 q-67 -89 -143 -172 q-24 35 -56 66 q182 190 297 402 l-280 0 l0 71 l316 0 q35 72 63 146 l78 -32 q-24 -58 -51 -114 l552 0 l0 -71 l-588 0 q-55 -104 -121 -203 l234 0 l0 153 Z" /><glyph glyph-name="*" unicode="&#x4e34;" d="M238 -48 l-78 0 l0 358 l308 0 l0 92 l79 0 l0 -92 l309 0 l0 -256 q0 -91 -100 -91 q-35 0 -129 1 q-5 32 -15 74 q90 -6 121 -6 q46 0 46 42 l0 167 l-232 0 l0 -374 l-79 0 l0 374 l-230 0 l0 -289 ZM20 718 l204 0 l0 121 l74 0 l0 -121 l170 0 l0 121 l75 0 l0 -121 l171 0 l0 121 l74 0 l0 -121 l204 0 l0 -69 l-204 0 l0 -109 l-74 0 l0 109 l-171 0 l0 -109 l-75 0 l0 109 l-170 0 l0 -109 l-74 0 l0 109 l-204 0 l0 69 ZM53 500 l908 0 l0 -180 l-77 0 l0 111 l-753 0 l0 -111 l-78 0 l0 180 Z" /><glyph glyph-name="*" unicode="&#x660e;" d="M19 202 l159 0 l0 284 l351 0 l0 176 l-291 0 q-67 -120 -150 -222 q-26 28 -61 55 q140 159 211 356 l81 -23 q-21 -49 -44 -95 l681 0 l0 -71 l-347 0 l0 -176 l331 0 l0 -70 l-331 0 l0 -214 l392 0 l0 -71 l-392 0 l0 -267 l-80 0 l0 267 l-510 0 l0 71 ZM256 202 l273 0 l0 214 l-273 0 l0 -214 Z" /><glyph glyph-name="*" unicode="&#x8d39;" d="M20 344 l262 0 q0 16 0 240 l-220 0 l0 77 l282 0 q-63 83 -116 140 l59 45 q81 -81 128 -142 l-63 -43 l247 0 q63 82 127 186 l78 -49 q-62 -79 -112 -137 l259 0 l0 -77 l-209 0 l0 -240 l252 0 l0 -77 l-252 0 l0 -396 l-82 0 l0 396 l-301 0 q-12 -263 -241 -405 q-37 48 -56 69 q209 133 215 336 l-257 0 l0 77 ZM363 344 l297 0 l0 240 l-297 0 q0 -206 0 -240 Z" /><glyph glyph-name="*" unicode="&#x4ea4;" d="M154 694 l395 0 q-28 48 -74 113 l72 42 q49 -62 87 -122 l-56 -33 l406 0 l0 -80 l-741 0 l0 -245 q1 -311 -162 -495 q-23 25 -71 62 q144 158 144 443 l0 315 Z" /><glyph glyph-name="*" unicode="&#x6253;" d="M519 629 l81 0 l0 -124 l371 0 l0 -71 l-371 0 l0 -140 l294 0 l0 -425 l-79 0 l0 64 l-450 0 l0 -64 l-79 0 l0 425 l233 0 l0 335 ZM470 819 l71 35 q40 -60 74 -124 l381 0 l0 -73 l-804 0 l0 -332 q-10 -309 -134 -464 q-22 31 -56 67 q107 142 108 415 l0 387 l413 0 q-24 45 -53 89 ZM815 222 l-450 0 l0 -220 l450 0 l0 220 Z" /><glyph glyph-name="*" unicode="&#x82b1;" d="M472 812 l67 38 q38 -49 75 -107 l-52 -29 l426 0 l0 -71 l-798 0 l0 -245 q0 -342 -121 -525 q-19 27 -56 65 q99 152 99 456 l0 320 l423 0 q-25 41 -63 98 ZM439 451 l329 0 l0 165 l78 0 l0 -165 l136 0 l0 -70 l-136 0 l0 -380 q0 -118 -113 -118 l-140 0 q-6 38 -15 81 q71 -5 127 -6 q63 -1 63 63 l0 360 l-329 0 l0 70 ZM199 298 q112 122 205 332 l73 -30 q-39 -82 -82 -154 l0 -571 l-77 0 l0 450 q-39 -56 -80 -105 q-24 54 -39 78 ZM556 328 q54 -102 97 -201 l-71 -36 q-38 97 -92 204 l66 33 Z" /><glyph glyph-name="*" unicode="&#x5ff5;" d="M246 193 l0 65 l620 0 l0 -64 q-89 -97 -209 -168 q143 -58 335 -75 l-39 -77 q-220 30 -376 109 q-165 -81 -379 -120 q-16 32 -41 71 q196 31 344 92 q-105 69 -174 167 l-81 0 ZM216 561 l147 0 l0 83 l76 0 l0 -83 l280 0 l0 84 l75 0 l0 -84 l180 0 l0 -66 l-180 0 l0 -190 l-75 0 l0 35 l-280 0 l0 -36 l-76 0 l0 191 l-147 0 l0 66 ZM479 819 l72 35 q34 -53 68 -120 l365 0 l0 -69 l-790 0 l0 -298 q0 -339 -132 -505 q-24 33 -56 67 q109 134 111 443 l0 362 l411 0 q-23 44 -49 85 ZM439 403 l280 0 l0 92 l-280 0 l0 -92 ZM763 193 l-353 0 q70 -78 169 -131 q108 55 184 131 Z" /><glyph glyph-name="*" unicode="&#x827a;" d="M491 810 l68 37 q30 -48 64 -107 l358 0 l0 -65 l-789 0 l0 -221 l334 0 l0 74 l-272 0 l0 60 l272 0 l0 65 l71 0 l0 -65 l285 0 l0 -134 l112 0 l0 -60 l-112 0 l0 -156 l-67 0 l0 21 l-218 0 l0 -22 q48 -59 104 -108 q101 53 180 103 l47 -58 q-80 -43 -174 -87 q104 -79 230 -119 q-30 -40 -49 -69 q-219 96 -338 242 l0 -162 q0 -105 -109 -105 q-45 0 -120 2 q-4 40 -12 78 q81 -7 120 -7 q48 0 50 50 l0 59 q-154 -52 -332 -112 l-19 70 q204 60 351 110 l0 135 l-278 0 l0 59 l278 0 l0 76 l-334 0 l0 -25 q0 -317 -124 -504 q-24 34 -54 67 q103 164 103 433 l0 375 l417 0 q-20 33 -43 70 ZM815 318 l0 76 l-218 0 l0 -76 l218 0 ZM815 528 l-218 0 l0 -74 l218 0 l0 74 ZM243 186 l39 48 q78 -44 138 -88 l-46 -55 q-59 49 -131 95 Z" /><glyph glyph-name="*" unicode="&#x9662;" d="M329 160 l253 0 l0 86 l-220 0 l0 59 l220 0 l0 87 l-206 0 l0 59 l206 0 l0 86 l-257 0 l0 61 l257 0 l0 87 l-206 0 l0 59 l206 0 l0 97 l73 0 l0 -97 l230 0 l0 -146 l104 0 l0 -61 l-104 0 l0 -172 l-71 0 l0 27 l-159 0 l0 -87 l250 0 l0 -59 l-250 0 l0 -86 l295 0 l0 -60 l-295 0 l0 -101 l-73 0 l0 101 l-253 0 l0 60 ZM95 327 q30 -121 83 -198 q53 109 67 251 l-198 0 l0 72 l182 225 l-202 0 l0 67 l293 0 l0 -67 l-186 -230 l185 0 l0 -58 q-19 -184 -90 -319 q108 -93 335 -94 q188 -4 437 5 q-17 -41 -33 -79 q-226 1 -438 2 q-221 0 -339 103 q-56 -81 -136 -141 q-15 29 -40 64 q74 57 125 132 q-67 84 -110 240 l65 25 ZM655 451 l159 0 l0 86 l-159 0 l0 -86 ZM814 685 l-159 0 l0 -87 l159 0 l0 87 Z" /><glyph glyph-name="*" unicode="&#x672c;" d="M20 404 l258 0 l0 289 l-215 0 l0 78 l888 0 l0 -78 l-202 0 l0 -289 l245 0 l0 -78 l-245 0 l0 -451 l-81 0 l0 451 l-309 0 q-4 -181 -52 -269 q-49 -97 -223 -195 q-26 36 -56 69 q151 77 202 162 q45 67 48 233 l-258 0 l0 78 ZM359 404 l309 0 l0 289 l-309 0 l0 -289 Z" /><glyph glyph-name="*" unicode="&#x8fd1;" d="M15 653 l550 0 q-4 91 -6 194 l85 0 q-1 -98 2 -194 l341 0 l0 -74 l-337 0 q19 -499 167 -606 q53 -44 75 24 q15 51 27 152 q46 -17 80 -26 q-19 -116 -41 -187 q-23 -68 -91 -68 q-68 0 -135 69 q-142 151 -162 642 l-555 0 l0 74 ZM19 25 q112 14 229 29 l0 278 l-193 0 l0 74 l466 0 l0 -74 l-191 0 l0 -266 q115 16 236 34 q-2 -38 -2 -80 q-298 -42 -525 -78 l-20 83 ZM720 789 l47 50 q72 -51 145 -117 l-57 -58 q-63 64 -135 125 Z" /><glyph glyph-name="*" unicode="&#x9999;" d="M170 329 l410 0 q-14 -198 -26 -290 q-13 -152 -168 -152 q-91 0 -205 5 q-7 43 -21 91 q107 -11 211 -11 q98 0 105 98 q8 60 17 185 l-420 0 l59 303 l356 0 l0 165 l-415 0 l0 73 l496 0 l0 -349 l-81 0 l0 38 l-289 0 l-29 -156 ZM820 838 l83 0 l0 -969 l-83 0 l0 969 Z" /><glyph glyph-name="*" unicode="&#x7fa4;" d="M28 419 l133 0 l0 281 l-106 0 l0 72 l543 0 l0 -72 l-122 0 l0 -281 l154 0 l0 -71 l-154 0 l0 -473 l-76 0 l0 473 l-163 0 q1 -328 -173 -481 q-23 34 -52 65 q150 126 149 416 l-133 0 l0 71 ZM238 419 l162 0 l0 281 l-162 0 l0 -281 ZM1001 214 q-157 -188 -409 -346 q-17 27 -55 65 q243 130 406 332 l58 -51 ZM972 502 q-140 -160 -335 -289 q-21 29 -52 60 q184 114 330 279 l57 -50 ZM956 782 q-133 -147 -324 -265 q-18 26 -50 64 q184 104 317 251 l57 -50 Z" /><glyph glyph-name="*" unicode="&#x6599;" d="M270 652 l82 0 l0 -580 q0 -90 81 -90 l212 0 q86 0 97 71 q10 62 18 149 q42 -16 85 -31 q-14 -104 -27 -156 q-27 -111 -157 -111 l-248 0 q-143 0 -143 149 l0 599 ZM829 577 q84 -160 175 -363 l-82 -40 q-77 192 -168 368 l75 35 ZM125 546 l79 -22 q-46 -211 -109 -410 l-79 31 q65 186 109 401 ZM488 851 q94 -157 159 -282 q-46 -24 -79 -43 q-69 154 -149 289 l69 36 Z" /><glyph glyph-name="*" unicode="&#x5904;" d="M297 346 l263 0 q8 82 11 245 l-207 0 l0 70 l208 0 q0 78 0 173 l78 0 q0 -94 -1 -173 l242 0 l0 -315 l97 0 l0 -70 l-321 0 q81 -225 316 -330 q-26 -25 -66 -76 q-225 127 -304 361 q-60 -223 -290 -369 q-33 41 -59 66 q238 141 286 348 l-253 0 l0 70 ZM152 834 l75 0 l0 -218 l38 26 q65 -71 112 -139 l-59 -43 q-44 67 -91 126 l0 -720 l-75 0 l0 968 ZM814 591 l-166 0 q-2 -158 -8 -245 l174 0 l0 245 ZM56 606 l67 -10 q-15 -119 -44 -253 q-28 7 -66 16 q24 102 43 247 Z" /><glyph glyph-name="*" unicode="&#x884c;" d="M268 209 l78 0 l0 -171 q0 -74 68 -74 l200 0 q62 0 76 69 q8 39 15 105 q29 -13 76 -30 q-14 -77 -25 -113 q-24 -100 -137 -100 l-220 0 q-131 0 -131 133 l0 181 ZM396 245 l55 48 q104 -97 168 -164 l-60 -56 q-74 86 -163 172 ZM771 184 l59 44 q85 -99 171 -210 l-66 -50 q-64 91 -164 216 ZM111 204 l74 -26 q-49 -157 -99 -261 q-32 14 -71 33 q56 117 96 254 ZM412 609 l55 44 q62 -68 114 -139 l-63 -47 q-44 64 -106 142 ZM196 381 l0 69 l585 0 l0 -66 q-55 -103 -118 -196 q-38 21 -71 31 q51 70 100 162 l-496 0 ZM567 841 q-9 -14 -18 -27 q193 -200 450 -281 q-31 -42 -51 -78 q-259 115 -443 304 q-146 -165 -448 -317 q-20 38 -43 70 q300 128 466 329 l87 0 Z" /><glyph glyph-name="*" unicode="&#x7a7a;" d="M311 -24 l321 0 l0 265 l-256 0 l0 69 l256 0 l0 240 l-161 0 q-36 -94 -85 -187 q-42 34 -66 45 q99 180 138 367 l79 -21 q-17 -68 -40 -135 l135 0 l0 218 l78 0 l0 -218 l260 0 l0 -69 l-260 0 l0 -240 l240 0 l0 -69 l-240 0 l0 -265 l291 0 l0 -70 l-690 0 l0 70 ZM156 838 l77 0 l0 -190 l42 24 q52 -80 88 -151 l-61 -39 q-35 73 -69 129 l0 -749 l-77 0 l0 976 ZM64 614 l66 -15 q-18 -119 -50 -254 q-27 10 -68 19 q30 108 52 250 Z" /><glyph glyph-name="*" unicode="&#x9053;" d="M143 674 l432 0 q62 90 111 174 l76 -40 q-49 -67 -101 -134 l210 0 l0 -404 l-79 0 l0 43 l-570 0 l0 -43 l-79 0 l0 404 ZM792 602 l-570 0 l0 -217 l570 0 l0 217 ZM268 218 l78 0 l0 -173 q0 -77 69 -77 l199 0 q58 0 73 59 q9 31 18 111 q29 -13 76 -30 q-13 -75 -29 -123 q-30 -86 -134 -86 l-219 0 q-131 0 -131 132 l0 187 ZM114 225 l74 -24 q-40 -123 -103 -254 q-32 14 -72 32 q57 116 101 246 ZM773 191 l57 43 q91 -101 171 -203 l-66 -52 q-71 99 -162 212 ZM422 252 l60 40 q70 -75 130 -159 l-67 -46 q-59 89 -123 165 ZM252 809 l61 39 q59 -62 107 -129 l-68 -43 q-42 61 -100 133 Z" /><glyph glyph-name="*" unicode="&#x8ba1;" d="M145 746 l242 0 q21 53 35 102 l77 -21 q-16 -42 -34 -81 l394 0 l0 -541 l-76 0 l0 31 l-562 0 l0 -31 l-76 0 l0 541 ZM248 168 l76 0 l0 -146 q0 -61 65 -61 l220 0 q79 0 92 54 q10 36 20 108 q36 -15 77 -28 q-12 -69 -24 -110 q-23 -94 -147 -94 l-250 0 q-129 0 -129 122 l0 155 ZM221 450 l562 0 l0 83 l-562 0 l0 -83 ZM221 303 l562 0 l0 84 l-562 0 l0 -84 ZM783 679 l-562 0 l0 -83 l562 0 l0 83 ZM101 178 l72 -25 q-43 -119 -91 -217 q-32 14 -73 29 q48 86 92 213 ZM811 146 l57 45 q71 -77 144 -168 l-64 -48 q-67 91 -137 171 ZM422 179 l53 45 q61 -55 133 -132 l-61 -52 q-73 86 -125 139 Z" /><glyph glyph-name="*" unicode="&#x54c1;" d="M445 -126 l-76 0 l0 502 l557 0 l0 -382 q0 -110 -100 -112 q-66 -1 -169 0 q-5 31 -14 76 q94 -6 153 -6 q54 0 54 48 l0 53 l-405 0 l0 -179 ZM305 498 l303 0 l0 69 l-250 0 l0 62 l250 0 l0 66 l-277 0 l0 63 l277 0 l0 89 l75 0 l0 -89 l297 0 l0 -63 l-297 0 l0 -66 l269 0 l0 -62 l-269 0 l0 -69 l318 0 l0 -62 l-696 0 l0 62 ZM148 838 l70 0 l0 -201 l37 27 q51 -60 91 -110 l-56 -41 q-31 45 -72 100 l0 -742 l-70 0 l0 967 ZM850 312 l-405 0 l0 -68 l405 0 l0 68 ZM445 114 l405 0 l0 69 l-405 0 l0 -69 ZM50 612 l64 -8 q-11 -119 -36 -254 q-23 6 -64 14 q22 97 36 248 Z" /><glyph glyph-name="*" unicode="&#x6750;" d="M429 120 l50 43 l-254 0 l0 -31 l-74 0 l0 343 l705 0 l0 -343 l-73 0 l0 31 l-302 0 q65 -55 114 -107 l-58 -49 q-42 49 -108 113 ZM24 590 l278 0 q-39 37 -79 71 l29 28 l-167 0 l0 59 l395 0 q-21 42 -42 78 l67 29 q32 -56 55 -107 l369 0 l0 -59 l-173 0 l34 -26 q-40 -37 -82 -73 l282 0 l0 -60 l-966 0 l0 60 ZM261 125 l76 0 l0 -113 q0 -57 65 -57 l203 0 q71 0 84 54 q10 38 18 90 q35 -15 74 -28 q-12 -57 -22 -91 q-23 -92 -133 -92 l-240 0 q-125 0 -125 117 l0 120 ZM225 220 l558 0 l0 72 l-558 0 l0 -72 ZM783 417 l-558 0 l0 -70 l558 0 l0 70 ZM622 607 q40 34 88 82 l-419 0 q44 -33 86 -70 l-30 -29 l293 0 l-18 17 ZM104 120 l69 -26 q-35 -91 -83 -183 q-30 14 -69 31 q40 73 83 178 ZM820 80 l56 43 q70 -75 126 -141 l-62 -50 q-61 79 -120 148 Z" /><glyph glyph-name="*" unicode="&#x7ad9;" d="M362 -1 q142 67 256 155 q-41 131 -53 318 l-258 0 l0 -164 q98 17 203 37 q2 -45 3 -78 q-104 -20 -206 -40 l0 -232 q0 -113 -108 -114 q-66 -1 -133 3 q-5 44 -16 84 q72 -10 129 -10 q47 -1 47 47 l0 206 q-98 -19 -194 -38 l-20 85 q102 16 214 36 l0 178 l-213 0 l0 73 l213 0 l0 149 q-78 -10 -169 -20 q-7 37 -21 79 q243 23 418 59 l24 -79 q-75 -13 -171 -28 l0 -160 l253 0 q-7 121 -15 293 l84 0 q3 -158 10 -293 l362 0 l0 -73 l-357 0 q11 -153 40 -264 q109 97 189 216 l71 -47 q-103 -140 -233 -249 q28 -71 66 -116 q51 -59 88 -59 q21 0 30 33 q14 51 29 167 q41 -19 76 -29 q-18 -111 -36 -172 q-23 -79 -97 -80 q-85 1 -161 102 q-34 44 -60 103 q-108 -80 -233 -141 q-26 39 -51 63 ZM708 750 l51 52 q87 -66 179 -147 l-61 -61 q-81 82 -169 156 Z" /><glyph glyph-name="*" unicode="&#x672f;" d="M432 810 l71 43 q47 -57 94 -123 l-49 -31 l370 0 l0 -438 l-79 0 l0 51 l-626 0 q-13 -285 -147 -455 q-26 33 -57 65 q127 155 127 464 l0 313 l377 0 q-36 56 -81 111 ZM215 628 l0 -244 l624 0 l0 244 l-624 0 Z" /><glyph glyph-name="*" unicode="&#x8c03;" d="M123 738 l382 0 q-23 37 -48 71 l68 39 q39 -52 72 -110 l330 0 l0 -270 l-78 0 l0 30 l-648 0 l0 -154 q0 -313 -139 -475 q-25 32 -53 67 q114 136 114 417 l0 385 ZM232 392 l340 0 q-20 30 -44 66 l66 37 q38 -53 68 -103 l328 0 l0 -68 l-505 0 q-2 -54 -8 -99 l411 0 q-6 -106 -15 -197 q-13 -136 -149 -136 q-75 0 -156 2 q-6 41 -16 85 q94 -10 163 -10 q74 0 82 70 q6 51 10 120 l-341 0 q-30 -182 -222 -297 q-19 27 -51 66 q127 79 170 170 q40 76 45 226 l-176 0 l0 68 ZM849 671 l-648 0 l0 -105 l648 0 l0 105 Z" /><glyph glyph-name="*" unicode="&#x7b2c;" d="M13 277 q91 29 178 58 l0 232 l-162 0 l0 75 l162 0 l0 190 l79 0 l0 -190 l148 0 l0 -75 l-148 0 l0 -205 q82 29 161 57 q3 -50 8 -79 q-86 -30 -169 -60 l0 -291 q0 -108 -103 -108 q-44 0 -114 1 q-4 41 -11 83 q49 -7 106 -7 q43 0 43 47 l0 247 q-79 -29 -155 -57 l-23 82 ZM429 758 l571 0 l0 -75 l-170 0 l0 -671 q0 -125 -124 -126 q-64 -1 -172 1 q-5 45 -16 90 q112 -8 167 -8 q61 0 61 69 l0 645 l-317 0 l0 75 Z" /><glyph glyph-name="*" unicode="&#x6e38;" d="M653 831 l78 0 l0 -367 q108 93 197 198 l61 -56 q-137 -140 -258 -240 l0 -339 q0 -59 50 -59 l59 0 q59 0 68 54 q12 61 19 167 q36 -16 75 -29 q-9 -93 -21 -161 q-18 -106 -114 -106 l-96 0 q-118 0 -118 120 l0 818 ZM13 303 q67 19 140 42 l0 231 l-127 0 l0 71 l127 0 l0 195 l78 0 l0 -195 l108 0 l0 -71 l-108 0 l0 -207 q50 17 104 35 q-3 -42 -4 -79 q-48 -18 -100 -36 l0 -302 q0 -104 -93 -108 q-40 -2 -92 -1 q-4 39 -12 81 q45 -5 82 -5 q37 0 37 41 l0 268 q-61 -21 -128 -43 l-12 83 ZM625 113 q3 -44 8 -83 q-127 -78 -179 -114 q-28 -20 -48 -41 l-53 64 q32 29 32 84 l0 808 l77 0 l0 -303 l164 0 l0 -73 l-164 0 l0 -443 q67 39 163 101 Z" /><glyph glyph-name="*" unicode="8" d="M295 178 l180 0 l0 95 l-138 0 l0 69 l138 0 l0 91 l-128 0 l0 69 l128 0 l0 102 l202 108 l-538 0 l0 70 l700 0 l0 -71 l-291 -150 l0 -59 l129 0 l0 -69 l-129 0 l0 -91 l136 0 l0 -69 l-136 0 l0 -95 l179 0 l0 -70 l-179 0 l0 -89 q0 -136 -130 -136 q-71 0 -154 2 q-9 39 -19 81 q80 -8 164 -8 q66 0 66 69 l0 81 l-180 0 l0 70 ZM713 569 l58 7 q3 -68 13 -130 q79 62 156 130 l52 -61 q-90 -73 -191 -151 q54 -211 201 -355 q-34 -22 -71 -53 q-219 250 -218 613 ZM48 562 l251 0 l0 -68 q-14 -296 -229 -521 q-17 21 -57 59 q198 206 212 461 l-177 0 l0 69 Z" /><glyph glyph-name="*" unicode="&#x7701;" d="M379 392 l0 65 l255 0 l0 151 l-259 0 l0 73 l259 0 l0 159 l79 0 l0 -159 l269 0 l0 -73 l-269 0 l0 -151 l211 0 l0 -60 q-70 -198 -199 -320 q112 -88 276 -134 q-38 -43 -63 -76 q-161 65 -273 159 q-130 -98 -305 -167 q-20 32 -52 70 q177 58 302 149 q-110 120 -165 314 l-66 0 ZM12 318 q75 22 144 42 l0 214 l-131 0 l0 68 l131 0 l0 192 l77 0 l0 -192 l115 0 l0 -68 l-115 0 l0 -190 q57 18 111 36 q0 -47 2 -77 q-56 -18 -113 -36 l0 -319 q0 -105 -99 -106 q-40 -1 -95 0 q-6 41 -13 84 q58 -6 88 -6 q42 0 42 44 l0 278 q-66 -23 -134 -46 l-10 82 ZM838 392 l-317 0 q45 -157 149 -265 q117 111 168 265 Z" /><glyph glyph-name="*" unicode="&#x521b;" d="M388 316 l0 70 l509 0 l0 -69 q-67 -157 -190 -264 q119 -74 298 -103 q-28 -37 -50 -75 q-185 40 -309 131 q-133 -94 -320 -139 q-22 40 -44 69 q180 38 306 119 q-109 105 -155 261 l-45 0 ZM15 311 q69 19 144 42 l0 219 l-131 0 l0 69 l131 0 l0 192 l75 0 l0 -192 l119 0 l0 -69 l-119 0 l0 -195 q51 16 105 34 q-1 -31 2 -77 q-54 -17 -107 -34 l0 -311 q0 -108 -96 -108 l-96 0 q-4 34 -13 84 q55 -6 90 -6 q40 0 40 47 l0 270 q-67 -23 -134 -47 l-10 82 ZM890 533 l111 0 q-10 -36 -17 -72 l-105 0 q-114 0 -114 109 l0 155 l-220 0 l0 -36 q1 -192 -151 -286 q-25 33 -53 61 q130 71 130 225 l0 105 l369 0 l0 -213 q0 -48 50 -48 ZM815 316 l-311 0 q42 -131 143 -218 q108 89 168 218 Z" /><glyph glyph-name="*" unicode="&#x6301;" d="M14 313 q75 17 138 33 l0 232 l-129 0 l0 71 l129 0 l0 191 l78 0 l0 -191 l126 0 l0 -71 l-126 0 l0 -213 q62 16 109 31 q1 -36 7 -78 q-62 -16 -116 -31 l0 -298 q0 -111 -101 -111 q-31 0 -94 2 q-4 40 -13 82 q62 -7 90 -7 q40 0 40 46 l0 265 q-73 -21 -128 -38 l-10 85 ZM345 491 l285 0 l0 138 l-229 0 l0 71 l229 0 l0 140 l77 0 l0 -140 l232 0 l0 -71 l-232 0 l0 -138 l294 0 l0 -72 l-656 0 l0 72 ZM348 285 l419 0 l0 101 l77 0 l0 -101 l148 0 l0 -72 l-148 0 l0 -224 q0 -109 -101 -110 q-62 -1 -147 1 q-4 32 -11 78 q75 -8 135 -8 q47 0 47 53 l0 210 l-419 0 l0 72 ZM411 154 l55 41 q74 -78 125 -146 l-66 -47 q-49 76 -114 152 Z" /><glyph glyph-name="*" unicode="&#x5bb6;" d="M285 -58 q193 28 314 93 q-92 42 -198 87 q43 55 79 110 l-163 0 l0 66 l204 0 q32 54 58 107 l73 -30 q-23 -40 -47 -77 l381 0 l0 -66 l-130 0 q-39 -109 -116 -183 q126 -53 245 -105 l-44 -73 q-111 59 -262 129 q-133 -91 -356 -133 q-14 33 -38 75 ZM16 311 q70 20 136 39 l0 227 l-124 0 l0 71 l124 0 l0 185 l74 0 l0 -185 l114 0 l0 -71 l-114 0 l0 -204 q47 15 92 30 q1 -44 6 -77 q-51 -16 -98 -32 l0 -305 q0 -107 -96 -108 q-37 -1 -93 1 q-4 40 -12 82 q59 -6 84 -6 q43 0 43 52 l0 260 q-67 -23 -126 -44 l-10 85 ZM320 487 l385 0 q63 87 112 163 l74 -41 q-51 -62 -104 -122 l206 0 l0 -67 l-673 0 l0 67 ZM358 727 l280 0 q-23 45 -49 89 l66 31 q32 -54 61 -108 l-25 -12 l278 0 l0 -66 l-611 0 l0 66 ZM504 144 q83 -33 162 -65 q77 63 110 153 l-213 0 q-30 -46 -59 -88 ZM447 610 l58 39 q46 -55 90 -115 l-63 -42 q-38 61 -85 118 Z" /><glyph glyph-name="*" unicode="&#x5212;" d="M268 478 q126 152 224 367 l74 -25 q-37 -78 -79 -151 l495 0 l0 -68 l-245 0 l0 -153 l231 0 l0 -67 l-231 0 l0 -154 l231 0 l0 -67 l-231 0 l0 -157 l261 0 l0 -65 l-543 0 l0 -74 l-75 0 l0 635 q-28 -39 -56 -77 q-18 22 -56 56 ZM14 313 q66 16 128 32 l0 240 l-121 0 l0 69 l121 0 l0 188 l74 0 l0 -188 l115 0 l0 -69 l-115 0 l0 -221 q60 16 115 32 q2 -45 7 -77 q-64 -18 -122 -34 l0 -300 q0 -101 -78 -106 q-50 -3 -101 -2 q-4 39 -12 82 q49 -4 79 -4 q38 0 38 39 l0 269 q-63 -18 -118 -35 l-10 85 ZM455 3 l206 0 l0 157 l-206 0 l0 -157 ZM455 227 l206 0 l0 154 l-206 0 l0 -154 ZM455 448 l206 0 l0 153 l-206 0 l0 -153 ZM637 803 l62 39 q48 -62 89 -123 l-68 -42 q-37 61 -83 126 Z" /><glyph glyph-name="*" unicode="&#x8fde;" d="M407 798 l494 0 l0 -391 l-71 0 l0 29 l-352 0 l0 -29 l-71 0 l0 391 ZM252 -89 q140 117 157 335 l74 0 q-5 -69 -20 -130 q63 -96 164 -129 l0 298 l-306 0 l0 65 l667 0 l0 -65 l-287 0 l0 -111 l248 0 l0 -64 l-248 0 l0 -139 q67 -8 299 1 q-2 -5 -23 -73 q-118 -3 -244 2 q-200 3 -294 141 q-42 -103 -121 -177 q-30 25 -66 46 ZM13 317 q63 28 128 58 l0 211 l-120 0 l0 67 l120 0 l0 184 l75 0 l0 -184 l127 0 l0 -67 l-127 0 l0 -175 q57 29 114 60 q3 -39 8 -79 q-61 -31 -122 -61 l0 -345 q0 -96 -73 -104 q-52 -5 -116 -3 q-6 41 -13 82 q54 -6 93 -6 q34 0 34 37 l0 300 q-60 -31 -118 -62 l-10 87 ZM478 499 l352 0 l0 88 l-352 0 l0 -88 ZM830 735 l-352 0 l0 -86 l352 0 l0 86 Z" /><glyph glyph-name="*" unicode="&#x5e02;" d="M606 841 l77 -26 q-37 -87 -74 -161 l385 0 l0 -69 l-92 0 q-24 -277 -140 -450 q93 -105 244 -181 q-34 -38 -60 -74 q-136 80 -236 188 q-99 -113 -255 -207 q-20 30 -52 66 q161 93 255 204 q-95 136 -135 371 q-20 -32 -41 -59 q-21 26 -54 59 q115 143 178 339 ZM89 519 l72 0 l0 -456 q51 10 105 19 l0 598 l-226 0 l0 70 l469 0 l0 -70 l-169 0 l0 -251 l155 0 l0 -70 l-155 0 l0 -263 q83 15 171 32 q-3 -43 -1 -77 q-274 -50 -485 -90 l-11 77 q36 6 75 13 l0 468 ZM826 585 l-243 0 q34 -240 127 -383 q93 148 116 383 Z" /><glyph glyph-name="*" unicode="&#x5c55;" d="M661 840 l80 -12 q-21 -96 -49 -179 l303 0 l0 -67 l-62 0 q-25 -291 -127 -463 q80 -109 204 -178 q-32 -43 -54 -78 q-120 78 -201 186 q-91 -113 -216 -196 q-22 29 -57 62 q139 91 225 207 q-80 139 -106 320 q-21 -37 -44 -68 q-19 28 -49 63 q115 165 153 403 ZM24 269 l150 0 q22 37 43 77 l71 -23 q-16 -27 -32 -54 l243 0 l0 -65 q-38 -97 -114 -170 q55 -26 111 -51 l-44 -69 q-61 35 -127 70 q-112 -81 -282 -127 q-16 32 -34 69 q144 33 244 94 q-85 44 -178 89 q32 46 62 94 l-113 0 l0 66 ZM35 609 l227 0 l0 222 l74 0 l0 -222 l190 0 l0 -65 l-190 0 l0 -60 l29 33 q92 -67 155 -119 l-48 -55 q-54 52 -136 116 l0 -113 l-74 0 l0 139 q-90 -94 -210 -166 q-18 29 -42 61 q125 67 229 164 l-204 0 l0 65 ZM853 582 l-185 0 q-5 -13 -11 -25 q18 -210 99 -359 q80 144 97 384 ZM172 132 q71 -32 145 -66 q68 58 107 137 l-206 0 q-23 -36 -46 -71 ZM481 806 l62 -40 q-55 -72 -109 -132 q-23 20 -54 42 q52 60 101 130 ZM60 763 l57 38 q44 -54 92 -116 l-61 -44 q-44 64 -88 122 Z" /><glyph glyph-name="*" unicode="&#x82cf;" d="M14 86 q106 135 162 306 l-152 0 l0 67 l165 0 l0 380 l73 0 l0 -380 l162 0 l0 -67 l-162 0 l0 -98 l45 35 q67 -71 122 -136 l-57 -46 q-51 70 -110 135 l0 -413 l-73 0 l0 399 q-62 -167 -144 -262 q-13 41 -31 80 ZM451 214 l317 39 l0 586 l76 0 l0 -577 l151 19 l6 -72 l-157 -19 l0 -321 l-76 0 l0 312 l-307 -38 l-10 71 ZM472 440 l43 53 q94 -63 175 -127 l-48 -60 q-77 66 -170 134 ZM286 530 q46 112 76 207 l71 -22 q-37 -98 -86 -211 l-61 26 ZM494 692 l46 52 q85 -61 167 -133 l-50 -58 q-64 62 -163 139 ZM23 715 l59 24 q37 -85 80 -198 l-68 -31 q-44 134 -71 205 Z" /><glyph glyph-name="*" unicode="&#x9762;" d="M569 760 q205 2 378 40 l26 -76 q-196 -26 -333 -33 l0 -231 l361 0 l0 -67 l-142 0 l0 -519 l-73 0 l0 519 l-146 0 l0 -49 q0 -304 -146 -473 q-24 30 -52 63 q127 140 127 413 l0 413 ZM42 315 l202 0 l0 94 l71 0 l0 -94 l194 0 l0 -63 l-194 0 l0 -258 q0 -105 -101 -105 q-43 0 -96 1 q-4 32 -11 75 q57 -6 90 -6 q47 0 47 50 l0 243 l-202 0 l0 63 ZM14 500 l159 0 q-42 67 -79 115 l54 38 q32 -40 84 -112 l-56 -41 l130 0 q54 78 100 154 l70 -40 q-48 -62 -91 -114 l150 0 l0 -63 l-521 0 l0 63 ZM46 730 l213 0 q-21 41 -48 88 l63 30 q31 -51 58 -102 l-34 -16 l211 0 l0 -63 l-463 0 l0 63 ZM118 207 l67 -31 q-53 -112 -106 -202 q-29 18 -65 35 q48 76 104 198 ZM403 202 q55 -75 97 -138 l-63 -44 q-44 77 -92 144 l58 38 Z" /><glyph glyph-name="*" unicode="&#x4e3a;" d="M31 672 l475 0 q-50 95 -78 138 l77 37 q28 -43 83 -139 l-72 -36 l469 0 l0 -76 l-600 0 q-4 -90 -8 -153 l478 0 q-12 -215 -25 -373 q-11 -179 -175 -179 q-75 0 -201 8 q-5 37 -14 91 q125 -17 204 -17 q91 0 101 108 q12 117 21 288 l-394 0 q-28 -327 -303 -507 q-26 32 -60 67 q261 172 280 462 q7 78 11 205 l-269 0 l0 76 Z" /><glyph glyph-name="*" unicode="&#x5b81;" d="M651 617 l71 0 l0 -166 l216 44 q-5 -125 -11 -232 q-6 -137 -107 -137 q-35 0 -74 1 q-5 37 -14 75 q44 -4 73 -4 q47 0 50 63 q5 71 7 148 l-140 -28 l0 -329 l-71 0 l0 315 l-116 -22 l0 -298 q0 -73 76 -73 l217 0 q78 0 88 65 q6 35 12 105 q35 -15 72 -28 q-10 -71 -19 -111 q-21 -104 -144 -104 l-242 0 q-131 0 -131 135 l0 295 l-68 -14 l-12 67 l80 15 l0 129 l71 0 l0 -114 l116 23 l0 180 ZM31 675 l367 0 l0 -69 l-207 0 q-1 -71 -4 -147 l178 0 q-6 -232 -15 -425 q-5 -132 -115 -132 q-35 0 -86 1 q-6 33 -15 76 q56 -6 86 -6 q55 0 59 73 q8 164 12 345 l-106 0 q1 -355 -126 -513 q-19 26 -50 59 q94 122 103 394 q5 146 7 275 l-88 0 l0 69 ZM369 538 q92 131 153 308 l72 -25 q-22 -55 -44 -106 l435 0 l0 -68 l-467 0 q-39 -80 -80 -146 q-40 23 -69 37 ZM149 809 l59 38 q47 -56 89 -126 l-63 -40 q-50 80 -85 128 Z" /><glyph glyph-name="*" unicode="7" d="M32 456 l388 0 q21 103 25 230 l-338 0 l0 77 l804 0 l0 -77 l-383 0 q-7 -127 -26 -230 l484 0 l0 -77 l-501 0 q-75 -335 -414 -519 q-21 34 -53 70 q295 148 384 449 l-370 0 l0 77 ZM539 307 l80 0 l0 -260 q0 -78 72 -78 l136 0 q67 0 76 58 q8 57 12 147 q37 -14 83 -29 q-10 -98 -18 -147 q-13 -99 -140 -99 l-172 0 q-129 0 -129 136 l0 272 Z" /><glyph glyph-name="*" unicode="&#x5f62;" d="M54 749 l342 0 l0 -807 l-78 0 l0 82 l-185 0 l0 -94 l-79 0 l0 819 ZM429 624 l351 0 l0 219 l79 0 l0 -219 l141 0 l0 -73 l-141 0 l0 -533 q0 -132 -126 -132 q-58 0 -169 3 q-5 35 -16 83 q104 -8 163 -8 q69 0 69 70 l0 517 l-351 0 l0 73 ZM133 98 l185 0 l0 256 l-185 0 l0 -256 ZM318 676 l-185 0 l0 -251 l185 0 l0 251 ZM540 456 q79 -145 119 -231 q-25 -12 -79 -39 q-38 94 -111 234 l71 36 Z" /><glyph glyph-name="*" unicode="&#x5e26;" d="M372 -138 q-25 29 -64 60 q121 109 159 213 q38 98 38 311 l0 348 l435 0 l0 -801 q0 -118 -114 -118 q-71 0 -169 3 q-6 39 -14 81 q98 -6 158 -6 q60 0 60 58 l0 192 l-295 0 q-27 -185 -194 -341 ZM75 763 l310 0 l0 -673 l-236 0 l0 -73 l-74 0 l0 746 ZM576 275 l285 0 l0 188 l-278 0 q1 -102 -7 -188 ZM861 720 l-278 0 l0 -186 l278 0 l0 186 ZM311 162 l0 233 l-162 0 l0 -233 l162 0 ZM311 691 l-162 0 l0 -226 l162 0 l0 226 Z" /><glyph glyph-name="*" unicode="&#x5de5;" d="M146 795 l728 0 l0 -411 l-77 0 l0 39 l-651 0 l0 372 ZM18 173 q158 86 268 233 l70 -26 q-19 -27 -39 -52 l615 0 q-9 -187 -19 -289 q-13 -159 -161 -160 q-82 -1 -171 0 q-6 42 -15 84 q86 -8 167 -8 q93 0 103 93 q10 89 14 211 l-152 0 q-60 -260 -351 -400 q-26 33 -56 67 q277 114 330 333 l-151 0 q-72 -211 -382 -331 q-26 33 -55 67 q292 108 355 264 l-134 0 q-84 -85 -187 -150 q-20 30 -49 64 ZM223 493 l574 0 l0 83 l-574 0 l0 -83 ZM797 726 l-574 0 l0 -81 l574 0 l0 81 Z" /><glyph glyph-name="*" unicode="&#x91cc;" d="M143 799 l744 0 l0 -415 l-75 0 l0 34 l-669 0 l0 381 ZM44 -22 l449 0 l0 97 l-323 0 l0 71 l323 0 l0 91 l-288 0 q-58 -85 -125 -155 q-24 26 -57 58 q114 113 189 263 l75 -31 q-18 -33 -36 -64 l242 0 l0 88 l79 0 l0 -88 l372 0 l0 -71 l-372 0 l0 -91 l346 0 l0 -71 l-346 0 l0 -97 l418 0 l0 -72 l-946 0 l0 72 ZM218 488 l594 0 l0 88 l-594 0 l0 -88 ZM812 730 l-594 0 l0 -87 l594 0 l0 87 Z" /><glyph glyph-name="*" unicode="&#x5bf9;" d="M143 805 l728 0 l0 -332 l-71 0 l0 35 l-586 0 l0 -35 l-71 0 l0 332 ZM160 317 l701 0 l0 -227 l-71 0 l0 31 l-239 0 l0 -137 q1 -105 -104 -105 q-66 0 -109 1 q-2 15 -15 78 q62 -6 107 -6 q47 0 48 49 l0 120 l-246 0 l0 -31 l-72 0 l0 227 ZM53 437 l414 0 q-11 20 -23 42 l66 27 q21 -36 38 -69 l414 0 l0 -61 l-909 0 l0 61 ZM790 258 l-558 0 l0 -77 l558 0 l0 77 ZM214 568 l586 0 l0 60 l-586 0 l0 -60 ZM800 746 l-586 0 l0 -60 l586 0 l0 60 ZM634 16 l33 63 q154 -58 301 -118 l-36 -68 q-136 63 -298 123 ZM345 80 l41 -61 q-143 -70 -293 -136 q-15 28 -40 63 q170 69 292 134 Z" /><glyph glyph-name="*" unicode="&#x603b;" d="M17 -67 q181 30 292 93 q-85 59 -154 154 l52 39 l-76 0 l0 415 l347 0 q1 43 1 91 l-427 0 l0 69 l909 0 l0 -69 l-406 0 q0 -49 0 -91 l328 0 l0 -463 l-75 0 l0 48 l-277 0 q-26 -117 -82 -180 q198 -73 553 -72 q-25 -44 -41 -79 q-393 11 -577 96 q-114 -75 -322 -121 q-19 35 -45 70 ZM206 460 l270 0 q1 47 2 107 l-272 0 l0 -107 ZM475 394 l-269 0 l0 -107 l261 0 q6 48 8 107 ZM542 287 l266 0 l0 107 l-257 0 q-2 -58 -9 -107 ZM808 567 l-254 0 q0 -60 -1 -107 l255 0 l0 107 ZM375 72 q54 46 79 147 l-243 0 q69 -95 164 -147 Z" /><glyph glyph-name="*" unicode="&#x754c;" d="M254 203 q-22 -191 -149 -345 q-32 31 -68 59 q96 104 128 248 q23 106 23 293 l0 342 l661 0 l0 -772 q0 -146 -139 -146 q-59 0 -151 2 q-5 35 -14 83 q91 -6 143 -6 q80 0 80 78 l0 164 l-514 0 ZM262 276 l506 0 l0 190 l-499 0 q0 -99 -7 -190 ZM269 726 l0 -188 l499 0 l0 188 l-499 0 Z" /><glyph glyph-name="*" unicode="0" d="M446 783 l490 0 q-5 -81 -8 -127 q-8 -154 -157 -151 q-40 1 -127 4 q-6 39 -13 79 q73 -9 131 -11 q85 -3 92 81 q3 26 5 56 l-337 0 l0 -285 l418 0 l0 -58 q-40 -174 -146 -303 q86 -81 213 -126 q-34 -40 -58 -71 q-121 57 -206 141 q-76 -74 -178 -131 q-19 32 -40 65 q99 51 170 121 q-96 124 -127 298 l-46 0 l0 -492 l-76 0 l0 910 ZM85 787 l279 0 l0 -803 q0 -99 -92 -99 q-50 0 -94 3 q-4 29 -12 70 q51 -8 87 -8 q41 0 41 41 l0 227 l-139 0 q3 -227 -82 -347 q-22 29 -54 55 q66 102 66 289 l0 572 ZM861 365 l-225 0 q31 -143 109 -243 q82 104 116 243 ZM155 280 l139 0 l0 191 l-139 0 l0 -191 ZM294 722 l-139 0 l0 -190 l139 0 l0 190 Z" /><glyph glyph-name="*" unicode="&#x6d25;" d="M995 127 q-26 -26 -67 -69 q-240 185 -383 473 l0 -392 l227 0 l0 -69 l-227 0 l0 -203 l-77 0 l0 203 l-234 0 l0 69 l234 0 l0 392 q-126 -251 -387 -485 q-38 37 -65 59 q281 232 421 489 l-399 0 l0 74 l430 0 l0 178 l77 0 l0 -178 l431 0 l0 -74 l-402 0 q157 -296 421 -467 Z" /><glyph glyph-name="*" unicode="&#x4e0a;" d="M1006 65 q-36 -41 -64 -79 q-247 174 -395 493 l0 -612 l-79 0 l0 614 q-138 -297 -405 -508 q-22 31 -57 75 q266 193 424 483 l-392 0 l0 73 l430 0 l0 240 l79 0 l0 -240 l433 0 l0 -73 l-396 0 q164 -323 422 -466 ZM644 774 l51 55 q86 -58 170 -130 l-55 -61 q-82 73 -166 136 Z" /><glyph glyph-name="*" unicode="&#x57df;" d="M535 702 l0 -327 q0 -355 -178 -514 q-27 34 -58 67 q156 138 156 429 l0 421 l369 0 l0 -745 q0 -49 34 -49 l23 0 q32 0 41 55 q10 76 14 164 q34 -16 75 -31 q-9 -98 -18 -161 q-16 -105 -101 -105 l-52 0 q-96 0 -96 113 l0 683 l-209 0 ZM13 222 q111 166 158 357 l-148 0 l0 67 l154 0 l0 195 l71 0 l0 -195 l139 0 l0 -67 l-139 0 l0 -165 l40 40 q76 -69 120 -113 l-54 -54 q-60 67 -106 111 l0 -522 l-71 0 l0 530 q-53 -167 -131 -271 q-16 45 -33 87 Z" /><glyph glyph-name="*" unicode="&#x8fbe;" d="M453 633 l327 0 l0 203 l78 0 l0 -203 l141 0 l0 -72 l-141 0 l0 -535 q0 -139 -129 -139 q-57 0 -155 1 q-5 36 -16 87 q98 -7 147 -7 q75 0 75 62 l0 446 q-125 -271 -370 -467 q-24 29 -59 67 q260 196 391 485 l-289 0 l0 72 ZM14 207 q116 164 166 359 l-150 0 l0 70 l163 0 l0 200 l76 0 l0 -200 l144 0 l0 -70 l-144 0 l0 -134 l41 37 q83 -77 155 -152 l-59 -54 q-66 78 -137 148 l0 -543 l-76 0 l0 540 q-60 -173 -141 -288 q-17 43 -38 87 Z" /><glyph glyph-name="*" unicode="&#x6c42;" d="M1002 22 q-33 -41 -56 -75 q-258 117 -401 299 l0 -379 l-76 0 l0 384 q-144 -169 -404 -316 q-20 30 -53 68 q258 130 433 301 l-416 0 l0 70 l440 0 l0 260 l-382 0 l0 69 l382 0 l0 143 l76 0 l0 -143 l390 0 l0 -69 l-390 0 l0 -260 l441 0 l0 -70 l-421 0 q163 -181 437 -282 ZM643 438 q91 97 141 168 l68 -52 q-74 -88 -152 -165 l-57 49 ZM170 556 l58 46 q73 -72 138 -154 l-65 -54 q-51 69 -131 162 Z" /><glyph glyph-name="*" unicode="&#x6027;" d="M339 485 q110 156 177 356 l76 -25 q-29 -68 -55 -127 l426 0 q-14 -506 -20 -626 q-4 -104 -47 -143 q-41 -38 -147 -38 q-78 0 -163 5 q-6 39 -17 87 q98 -11 177 -13 q69 -1 93 24 q24 20 27 90 q7 133 17 541 l-381 0 q-53 -103 -102 -173 q-25 19 -61 42 ZM13 215 q103 161 145 352 l-138 0 l0 66 l139 0 l0 196 l69 0 l0 -196 l128 0 l0 -66 l-128 0 l0 -134 l27 29 q68 -62 140 -131 l-52 -54 q-62 70 -115 121 l0 -530 l-69 0 l0 510 q-48 -155 -114 -250 q-13 43 -32 87 ZM622 357 l60 32 q72 -125 150 -273 l-71 -37 q-12 26 -24 53 q-129 -8 -254 -18 q-31 -3 -87 -15 l-34 72 q32 22 54 53 q81 128 160 314 l74 -31 q-58 -128 -178 -321 q143 4 235 8 q-40 82 -85 163 Z" /><glyph glyph-name="*" unicode="&#x670d;" d="M12 223 q110 170 150 355 l-143 0 l0 67 l150 0 l0 194 l70 0 l0 -194 l134 0 l0 -67 l-134 0 l0 -176 l42 45 q64 -54 112 -105 l-52 -54 q-48 54 -102 108 l0 -522 l-70 0 l0 536 q-52 -170 -124 -274 q-14 43 -33 87 ZM372 491 l618 0 l0 -70 l-273 0 l0 -414 q0 -123 -114 -123 q-54 -1 -132 1 q-5 35 -14 82 q69 -8 125 -8 q60 0 60 73 l0 389 l-270 0 l0 70 ZM418 781 l526 0 l0 -70 l-526 0 l0 70 ZM782 294 l70 33 q94 -180 157 -316 l-79 -34 q-65 153 -148 317 ZM464 327 l75 -30 q-82 -181 -162 -321 q-30 18 -72 34 q79 128 159 317 Z" /><glyph glyph-name="*" unicode="&#x767e;" d="M327 120 q197 102 330 242 q-97 -10 -180 -19 q-36 -4 -68 -14 l-37 72 q41 22 64 52 q62 76 121 174 l-188 0 l0 71 l304 0 q-40 61 -75 108 l64 41 q38 -47 87 -114 l-52 -35 l303 0 l0 -71 l-351 0 q-72 -110 -149 -207 q109 6 221 13 q56 70 99 150 l72 -39 q-169 -297 -509 -484 q-28 31 -56 60 ZM14 214 q106 169 148 359 l-141 0 l0 69 l142 0 l0 197 l75 0 l0 -197 l112 0 l0 -69 l-112 0 l0 -175 l30 33 q64 -53 118 -107 l-50 -50 q-49 52 -98 98 l0 -509 l-75 0 l0 525 q-50 -163 -117 -261 q-13 43 -32 87 ZM356 -75 q339 143 558 466 l67 -46 q-85 -123 -186 -221 q114 -93 214 -182 l-61 -64 q-93 92 -207 196 q-150 -132 -332 -214 q-19 27 -53 65 Z" /><glyph glyph-name="*" unicode="&#x57ce;" d="M305 -66 q191 23 300 82 q-95 42 -187 80 q39 49 76 102 l-166 0 l0 64 l208 0 q22 35 45 74 l69 -29 q-15 -22 -31 -45 l371 0 l0 -64 l-144 0 q-45 -102 -104 -166 q118 -48 238 -102 l-39 -66 q-131 63 -258 120 q-115 -84 -340 -121 q-17 38 -38 71 ZM382 604 l249 0 l0 239 l69 0 l0 -239 l270 0 l0 -63 l-227 0 q106 -115 253 -170 q-26 -28 -52 -67 q-150 83 -244 216 l0 -193 l-69 0 l0 194 q-103 -139 -235 -228 q-19 26 -48 57 q143 87 234 191 l-200 0 l0 63 ZM14 218 q99 165 139 350 l-125 0 l0 69 l135 0 l0 202 l72 0 l0 -202 l112 0 l0 -69 l-112 0 l0 -92 l27 27 q69 -62 110 -108 l-51 -49 q-35 45 -86 99 l0 -582 l-72 0 l0 550 q-49 -176 -118 -282 q-13 43 -31 87 ZM518 121 q75 -29 151 -60 q61 52 102 137 l-197 0 q-28 -38 -56 -77 ZM933 757 q-59 -70 -128 -137 l-51 44 q69 66 119 134 l60 -41 ZM403 756 l46 43 q73 -63 126 -123 l-53 -49 q-49 61 -119 129 Z" /><glyph glyph-name="*" unicode="&#x4e1c;" d="M325 156 l286 0 q7 36 9 89 l-153 0 l0 -28 l-71 0 l0 359 l530 0 l0 -359 l-72 0 l0 28 l-166 0 q-3 -54 -9 -89 l311 0 l0 -63 l-273 0 q107 -121 284 -147 q-28 -37 -49 -74 q-191 56 -298 202 q-71 -142 -325 -208 q-17 35 -39 68 q233 49 298 159 l-263 0 l0 63 ZM10 223 q86 144 136 333 l-124 0 l0 65 l137 0 l0 220 l70 0 l0 -220 l128 0 l0 -65 l-128 0 l0 -131 l38 32 q57 -61 105 -122 l-54 -45 q-46 65 -89 116 l0 -536 l-70 0 l0 539 q-53 -181 -115 -273 q-14 43 -34 87 ZM746 840 l70 0 l0 -95 l170 0 l0 -63 l-170 0 l0 -81 l-70 0 l0 81 l-176 0 l0 -81 l-69 0 l0 81 l-156 0 l0 63 l156 0 l0 96 l69 0 l0 -96 l176 0 l0 95 ZM854 514 l-387 0 l0 -74 l387 0 l0 74 ZM467 306 l387 0 l0 75 l-387 0 l0 -75 Z" /><glyph glyph-name="*" unicode="&#x7f6e;" d="M14 10 l161 0 l0 531 l85 0 l0 -531 l252 0 l0 673 l-453 0 l0 77 l901 0 l0 -77 l-363 0 l0 -260 l330 0 l0 -76 l-330 0 l0 -337 l403 0 l0 -77 l-986 0 l0 77 Z" /><glyph glyph-name="*" unicode="&#x5feb;" d="M30 475 l168 0 l0 279 l79 0 l0 -279 l212 0 l0 369 l79 0 l0 -145 l342 0 l0 -71 l-342 0 l0 -153 l418 0 l0 -74 l-956 0 l0 74 ZM30 -70 q563 69 825 367 l63 -62 q-282 -307 -859 -376 q-10 32 -29 71 ZM284 340 l63 -54 q-130 -136 -250 -235 q-23 28 -53 58 q121 95 240 231 ZM481 377 l79 0 l0 -293 l-79 0 l0 293 Z" /><glyph glyph-name="*" unicode="&#x95f4;" d="M117 342 l0 69 l703 0 l0 -104 q0 -237 53 -335 q24 -37 37 8 q14 70 20 174 q35 -13 71 -21 q-3 -76 -21 -167 q-23 -97 -92 -97 q-54 0 -86 64 q-61 119 -61 370 l0 39 l-624 0 ZM14 448 q142 178 213 400 l80 -24 q-16 -46 -34 -90 l675 0 l0 -69 l-706 0 q-81 -173 -196 -307 q-18 56 -32 90 ZM228 572 l645 0 l0 -68 l-645 0 l0 68 Z" /><glyph glyph-name="*" unicode="&#x9886;" d="M463 839 l81 0 l0 -159 q42 -116 97 -215 q109 91 218 218 l67 -60 q-116 -121 -245 -226 q131 -207 320 -336 q-42 -42 -67 -74 q-261 205 -390 507 l0 -463 q0 -147 -142 -147 q-44 0 -129 1 q-5 36 -16 89 q80 -8 129 -8 q77 0 77 74 l0 799 ZM41 522 l0 75 l341 0 l0 -72 q-84 -325 -307 -556 q-33 38 -60 60 q224 236 288 493 l-262 0 Z" /><glyph glyph-name="*" unicode="&#x65f6;" d="M36 662 l434 0 l0 179 l83 0 l0 -179 l433 0 l0 -71 l-433 0 l0 -62 q49 -111 115 -202 q103 89 194 198 l71 -58 q-122 -121 -216 -200 q119 -139 284 -222 q-37 -43 -60 -77 q-255 149 -388 400 l0 -364 q0 -127 -133 -127 q-72 0 -132 2 q-6 40 -16 88 q78 -9 128 -9 q70 0 70 72 l0 187 q-233 -119 -407 -217 l-42 81 q207 96 449 228 l0 282 l-434 0 l0 71 ZM181 531 q79 -78 162 -175 q-31 -26 -69 -56 q-69 91 -152 183 l59 48 ZM644 789 l48 52 q94 -59 150 -108 l-54 -59 q-58 51 -144 115 Z" /><glyph glyph-name="*" unicode="&#x6838;" d="M344 783 l632 0 l0 -78 l-548 0 l0 -718 l562 0 l0 -78 l-646 0 l0 874 ZM161 280 q49 -26 83 -39 q-54 -174 -114 -362 l-86 39 q69 168 117 362 ZM102 830 q93 -63 178 -133 q-27 -31 -54 -67 q-88 77 -174 142 l50 58 ZM54 573 q102 -63 190 -127 q-30 -39 -55 -71 q-88 73 -182 134 l47 64 Z" /><glyph glyph-name="*" unicode="&#x52a8;" d="M348 567 l341 0 l0 -417 l-265 0 l0 -86 l-76 0 l0 503 ZM311 781 l689 0 l0 -74 l-100 0 l0 -705 q0 -117 -126 -117 q-49 0 -155 1 q-5 45 -16 90 q97 -8 150 -8 q67 0 67 65 l0 674 l-509 0 l0 74 ZM614 496 l-190 0 l0 -276 l190 0 l0 276 ZM170 281 q48 -21 80 -31 q-38 -148 -107 -381 l-87 31 q66 173 114 381 ZM110 813 q68 -46 176 -133 q-32 -36 -56 -63 q-76 71 -168 140 l48 56 ZM63 553 q91 -66 173 -135 q-31 -32 -56 -62 q-107 96 -166 140 l49 57 Z" /><glyph glyph-name="*" unicode="&#x4e86;" d="M303 420 l247 0 l0 97 l-308 0 l0 66 l308 0 l0 98 l-247 0 l0 65 l247 0 l0 98 l76 0 l0 -98 l273 0 l0 -163 l91 0 l0 -66 l-91 0 l0 -195 l-73 0 l0 33 l-200 0 l0 -96 l299 0 l0 -65 l-299 0 l0 -100 l360 0 l0 -66 l-360 0 l0 -159 l-76 0 l0 159 l-316 0 l0 66 l316 0 l0 100 l-271 0 l0 65 l271 0 l0 96 l-247 0 l0 65 ZM132 280 q41 -20 80 -33 q-44 -181 -88 -372 l-87 26 q48 154 95 379 ZM826 681 l-200 0 l0 -98 l200 0 l0 98 ZM626 420 l200 0 l0 97 l-200 0 l0 -97 ZM63 566 q69 -47 174 -134 q-37 -40 -58 -63 q-106 96 -165 140 l49 57 ZM102 821 q78 -61 169 -143 q-33 -33 -59 -60 q-109 107 -161 149 l51 54 Z" /><glyph glyph-name="*" unicode="&#x7ed3;" d="M351 292 l246 0 l0 166 l-312 0 l0 75 l312 0 l0 166 q-121 -6 -264 -11 q-7 35 -15 75 q340 9 634 40 l16 -78 q-120 -12 -291 -22 l0 -170 l323 0 l0 -75 l-323 0 l0 -166 l246 0 l0 -426 l-78 0 l0 59 l-416 0 l0 -59 l-78 0 l0 426 ZM845 220 l-416 0 l0 -223 l416 0 l0 223 ZM161 280 q51 -27 85 -40 q-59 -186 -114 -362 l-88 40 q68 165 117 362 ZM54 573 q102 -62 190 -127 q-30 -40 -55 -71 q-110 88 -182 134 l47 64 ZM102 830 q95 -65 178 -133 q-27 -33 -54 -67 q-92 80 -174 142 l50 58 Z" /><glyph glyph-name="*" unicode="&#x7ea6;" d="M539 819 l69 31 q37 -61 61 -108 l-48 -22 l353 0 l0 -70 l-132 0 q-69 -124 -167 -204 q136 -70 327 -79 q-25 -49 -42 -81 q-215 24 -355 110 q-125 -76 -332 -127 q-15 34 -40 76 q182 34 305 100 q-97 84 -160 205 l-93 0 l0 70 l307 0 q-14 31 -53 99 ZM222 -65 q126 55 166 130 q42 69 40 231 l76 0 q1 -183 -47 -269 q-52 -96 -182 -160 q-20 34 -53 68 ZM725 299 l76 0 l0 -411 l-76 0 l0 411 ZM132 288 q36 -16 76 -30 q-43 -171 -89 -379 l-82 26 q59 192 95 383 ZM606 488 q93 67 148 162 l-294 0 q58 -98 146 -162 ZM61 581 q90 -66 164 -126 q-34 -41 -56 -65 q-68 64 -155 134 l47 57 ZM104 821 q85 -66 161 -136 q-29 -32 -55 -59 q-75 77 -156 142 l50 53 Z" /><glyph glyph-name="*" unicode="&#x5168;" d="M398 -127 l-78 0 l0 692 l271 0 l0 280 l82 0 l0 -280 l266 0 l0 -572 q0 -116 -111 -116 q-65 0 -172 3 q-6 36 -14 81 q98 -6 155 -6 q63 0 63 54 l0 94 l-462 0 l0 -230 ZM398 175 l462 0 l0 122 l-462 0 l0 -122 ZM860 491 l-462 0 l0 -122 l462 0 l0 122 ZM134 288 q40 -16 81 -30 q-49 -197 -91 -382 l-87 25 q53 177 97 387 ZM752 649 q76 76 142 168 l71 -54 q-62 -73 -154 -166 l-59 52 ZM63 574 q75 -53 175 -135 q-37 -42 -58 -64 q-112 100 -166 141 l49 58 ZM101 830 q75 -59 170 -144 q-33 -35 -58 -62 q-107 104 -163 152 l51 54 ZM306 772 l57 45 q46 -41 152 -161 l-68 -52 q-97 122 -141 168 Z" /><glyph glyph-name="*" unicode="&#x7684;" d="M1001 22 q-29 -35 -57 -70 q-167 109 -271 282 l0 -363 l-78 0 l0 366 q-112 -172 -293 -296 q-36 41 -59 62 q214 125 331 287 l-278 0 l0 72 l299 0 l0 124 l78 0 l0 -124 l306 0 l0 -72 l-290 0 q127 -172 312 -268 ZM323 777 l637 0 l0 -165 l-79 0 l0 89 l-479 0 l0 -92 l-79 0 l0 168 ZM155 294 q42 -19 82 -35 q-47 -161 -116 -380 l-84 31 q69 186 118 384 ZM540 641 l52 -53 q-123 -108 -235 -185 q-20 32 -48 64 q131 81 231 174 ZM679 589 l48 52 q125 -85 236 -174 l-52 -62 q-109 97 -232 184 ZM105 825 q110 -75 195 -142 q-32 -37 -55 -65 q-110 94 -189 151 l49 56 ZM64 578 q109 -70 193 -134 q-14 -15 -53 -65 q-82 68 -188 142 l48 57 Z" /><glyph glyph-name="*" unicode="&#x4e13;" d="M245 530 l185 0 l0 128 l-136 0 l0 65 l136 0 l0 116 l73 0 l0 -116 l198 0 l0 116 l73 0 l0 -116 l157 0 l0 -65 l-157 0 l0 -128 l197 0 l0 -65 l-193 0 q83 -129 222 -215 q-31 -33 -53 -65 q-88 62 -154 139 l0 -250 l-71 0 l0 25 l-282 0 l0 -65 q0 -66 62 -66 l268 0 q64 0 81 58 q10 39 18 104 q31 -14 73 -30 q-11 -57 -22 -97 q-29 -102 -139 -102 l-293 0 q-122 0 -122 122 l0 250 q-51 -55 -114 -103 q-19 29 -49 66 q-43 -192 -79 -361 l-87 26 q46 157 95 407 q41 -19 80 -32 q-4 -19 -9 -36 q141 87 218 225 l-176 0 l0 65 ZM722 282 l-282 0 l0 -119 l282 0 l0 119 ZM426 345 l350 0 q-45 56 -80 120 l-197 0 q-30 -63 -73 -120 ZM503 530 l198 0 l0 128 l-198 0 l0 -128 ZM57 581 q93 -68 179 -140 l-58 -63 q-116 101 -165 140 l44 63 ZM102 821 q78 -61 169 -143 l-59 -60 q-109 107 -161 149 l51 54 Z" /><glyph glyph-name="*" unicode="&#x6df1;" d="M575 292 l182 0 l0 52 l118 124 l-243 0 l0 57 q-21 -35 -45 -68 q-22 26 -51 55 q106 151 137 333 l74 -12 q-14 -71 -37 -137 l283 0 l0 -67 l-309 0 q-21 -49 -47 -94 l328 0 l0 -72 l-136 -138 l0 -33 l171 0 l0 -68 l-171 0 l0 -229 q0 -105 -107 -105 q-47 0 -102 1 q-4 32 -12 75 q63 -6 105 -6 q44 0 44 49 l0 215 l-182 0 l0 68 ZM221 659 l356 0 l0 -67 l-203 0 q0 -82 -2 -151 l182 0 q-7 -285 -15 -424 q-7 -116 -112 -116 q-42 0 -87 0 q-6 33 -16 76 q42 -5 86 -5 q53 0 58 59 q8 106 14 345 l-113 0 q-5 -354 -144 -508 q-29 33 -53 59 q82 99 105 232 q24 114 26 433 l-82 0 l0 67 ZM130 287 q36 -16 76 -30 q-44 -181 -89 -379 l-82 26 q59 192 95 383 ZM52 573 q91 -65 158 -121 q-33 -38 -54 -61 q-83 76 -149 128 l45 54 ZM92 823 q64 -49 143 -121 q-7 -7 -56 -57 q-65 66 -135 128 l48 50 ZM320 810 l64 36 q45 -65 82 -135 l-65 -35 q-37 68 -81 134 Z" /><glyph glyph-name="*" unicode="&#x94c1;" d="M640 792 l289 0 l0 -809 q0 -93 -96 -93 q-58 0 -114 3 q-3 28 -12 75 q75 -7 108 -7 q43 0 43 43 l0 225 l-156 0 q-7 -195 -163 -361 q-27 27 -63 54 q101 93 133 196 q31 93 31 318 l0 356 ZM276 412 l108 0 l0 163 l-136 0 l0 67 l136 0 l0 198 l72 0 l0 -198 l138 0 l0 -67 l-138 0 l0 -163 l102 0 l0 -346 l-212 0 l0 -69 l-70 0 l0 415 ZM489 131 l0 216 l-143 0 l0 -216 l143 0 ZM145 281 q46 -25 78 -37 q-31 -109 -99 -365 l-81 37 q62 172 102 365 ZM706 291 l152 0 l0 188 l-148 0 q1 -90 -4 -188 ZM858 728 l-148 0 l0 -188 l148 0 l0 188 ZM61 566 q78 -62 162 -134 q-38 -39 -59 -62 q-61 60 -152 141 l49 55 ZM107 820 q81 -65 154 -132 q-32 -31 -58 -59 q-55 62 -147 143 l51 48 Z" /><glyph glyph-name="*" unicode="&#x4fdd;" d="M367 121 l121 0 q-20 26 -43 52 q104 54 150 121 l-158 0 l0 441 l168 0 q19 48 39 110 l77 -24 q-22 -47 -41 -86 l256 0 l0 -475 l-70 0 l0 34 l-187 0 q-41 -91 -172 -173 l198 0 l0 127 l72 0 l0 -127 l224 0 l0 -68 l-224 0 l0 -181 l-72 0 l0 181 l-338 0 l0 68 ZM336 -121 l-73 0 l0 371 l-107 0 q0 -255 -76 -386 q-26 27 -61 57 q65 114 65 334 l0 549 l72 0 l0 -291 l100 0 l0 320 l73 0 l0 -320 l72 0 l0 -61 l-245 0 l0 -141 l180 0 l0 -432 ZM701 359 l165 0 l0 125 l-149 0 q-3 -74 -16 -125 ZM866 670 l-147 0 l0 -123 l147 0 l0 123 ZM506 547 l143 0 l0 123 l-143 0 l0 -123 ZM647 484 l-141 0 l0 -125 l121 0 q16 49 20 125 Z" /><glyph glyph-name="*" unicode="&#x5efa;" d="M13 255 q92 31 183 62 l0 233 l-78 0 q-20 -94 -50 -172 q-30 21 -65 43 q55 131 72 326 l72 -12 q-7 -62 -17 -119 l66 0 l0 222 l74 0 l0 -222 l124 0 l0 -66 l-124 0 l0 -207 q56 20 111 40 q5 -44 11 -76 q-57 -20 -122 -44 l0 -394 l-74 0 l0 367 q-80 -31 -168 -65 l-15 84 ZM358 492 l273 0 l0 146 l-231 0 l0 67 l231 0 l0 138 l77 0 l0 -138 l240 0 l0 -67 l-240 0 l0 -146 l286 0 l0 -68 l-636 0 l0 68 ZM379 291 l398 0 l0 105 l77 0 l0 -105 l145 0 l0 -68 l-145 0 l0 -218 q0 -123 -124 -124 q-45 -1 -135 1 q-6 38 -15 85 q78 -8 135 -8 q62 0 62 69 l0 195 l-398 0 l0 68 ZM435 155 l57 45 q71 -78 123 -142 l-64 -49 q-56 77 -116 146 Z" /><glyph glyph-name="*" unicode="&#x4ea7;" d="M413 704 l0 75 l545 0 l0 -75 l-255 0 q-33 -115 -76 -220 l65 0 l0 -613 l-78 0 l0 580 q-100 -232 -244 -410 q-25 26 -62 49 q212 258 314 614 l-209 0 ZM15 146 q71 17 151 39 l0 233 l-132 0 l0 72 l132 0 l0 182 l-139 0 l0 71 l349 0 l0 -71 l-131 0 l0 -182 l130 0 l0 -72 l-130 0 l0 -213 q59 17 124 35 q-3 -37 -1 -68 q-197 -63 -340 -110 l-13 84 ZM769 461 q152 -203 231 -329 l-67 -51 q-105 176 -225 339 l61 41 Z" /><glyph glyph-name="*" unicode="&#x66f4;" d="M618 656 l77 0 l0 -166 q0 -128 -22 -224 l66 0 l0 -250 q0 -52 57 -52 l47 0 q60 0 66 53 q6 46 10 130 q33 -14 81 -31 q-8 -87 -16 -130 q-15 -91 -130 -91 l-73 0 q-118 0 -118 111 l0 220 q-20 -71 -53 -123 q-84 -135 -278 -235 q-26 36 -54 65 q193 93 268 216 q72 111 72 335 l0 172 ZM410 797 l506 0 l0 -594 l-77 0 l0 521 l-352 0 l0 -534 l-77 0 l0 607 ZM13 61 q71 19 149 41 l0 289 l-130 0 l0 71 l130 0 l0 230 l-138 0 l0 71 l356 0 l0 -71 l-140 0 l0 -230 l126 0 l0 -71 l-126 0 l0 -266 q70 22 145 45 q2 -38 7 -74 q-170 -53 -351 -111 l-28 76 Z" /><glyph glyph-name="*" unicode="&#x6b65;" d="M322 -26 l310 0 l0 142 l-253 0 l0 70 l253 0 l0 130 l-159 0 l0 -36 l-73 0 l0 511 l537 0 l0 -511 l-74 0 l0 36 l-158 0 l0 -130 l252 0 l0 -70 l-252 0 l0 -142 l296 0 l0 -70 l-679 0 l0 70 ZM7 32 q76 18 147 37 l0 300 l-123 0 l0 69 l123 0 l0 248 l-133 0 l0 69 l340 0 l0 -69 l-133 0 l0 -248 l125 0 l0 -69 l-125 0 l0 -280 q65 18 126 36 q5 -44 11 -77 q-169 -46 -331 -96 l-27 80 ZM705 384 l158 0 l0 137 l-158 0 l0 -137 ZM473 384 l159 0 l0 137 l-159 0 l0 -137 ZM863 723 l-158 0 l0 -136 l158 0 l0 136 ZM473 587 l159 0 l0 136 l-159 0 l0 -136 Z" /></font>
</defs>
</svg>
